<?xml version="1.0" standalone="no"?>
<!DOCTYPE svg PUBLIC "-//W3C//DTD SVG 1.1//EN" "http://www.w3.org/Graphics/SVG/1.1/DTD/svg11.dtd" >
<svg xmlns="http://www.w3.org/2000/svg" xmlns:xlink="http://www.w3.org/1999/xlink" version="1.1">
<metadata>
Created by FontForge 20170910 at Sun May  5 18:09:11 2002
 By Jimmy Wärting
Copyright (C) 2002 JAW Fonts/Jason Walcott. All Rights Reserved.
</metadata>
<defs>
<font id="ScriptoramaTradeshowJF" horiz-adv-x="412" >
  <font-face 
    font-family="Scriptorama Tradeshow JF"
    font-weight="400"
    font-stretch="normal"
    units-per-em="1000"
    panose-1="0 0 4 0 0 0 0 0 0 0"
    ascent="800"
    descent="-200"
    x-height="369"
    cap-height="839"
    bbox="-241 -281 1370 1058"
    underline-thickness="20"
    underline-position="-143"
    unicode-range="U+0020-F002"
  />
<missing-glyph horiz-adv-x="500" 
d="M63 0v895h375v-895h-375zM125 63h250v770h-250v-770z" />
    <glyph glyph-name=".notdef" horiz-adv-x="500" 
d="M63 0v895h375v-895h-375zM125 63h250v770h-250v-770z" />
    <glyph glyph-name=".null" horiz-adv-x="0" 
 />
    <glyph glyph-name="nonmarkingreturn" horiz-adv-x="325" 
 />
    <glyph glyph-name="space" unicode=" " horiz-adv-x="325" 
 />
    <glyph glyph-name="exclam" unicode="!" horiz-adv-x="647" 
d="M637 695l-349 -514q-18 -26 -28 -26q-5 0 -11 10q-13 19 -13 55q0 40 45 122q11 20 69 115q81 129 98 156q62 99 89 130q12 15 35 15q16 0 29 -6q42 -19 42 -40q0 -8 -6 -17zM227 16q-22 -32 -43 -32q-14 0 -32 12q-26 18 -26 41q0 19 20 40q26 29 42 29q11 0 30 -9
q27 -12 27 -36q0 -19 -18 -45z" />
    <glyph glyph-name="quotedbl" unicode="&#x22;" horiz-adv-x="455" 
d="M402 586q-51 -89 -79 -109q-4 -3 -10 -3q-22 0 -29 15q-4 6 3 13q28 24 41 47q9 17 5 21q-29 13 -29 39q0 20 16 38q27 29 43 29q11 0 30 -9q26 -12 26 -34q0 -17 -17 -47zM266 586q-51 -89 -79 -109q-4 -3 -10 -3q-22 0 -29 15q-4 6 3 13q28 24 41 47q9 17 5 21
q-29 13 -29 39q0 20 16 38q27 29 43 29q11 0 30 -9q26 -12 26 -34q0 -17 -17 -47z" />
    <glyph glyph-name="numbersign" unicode="#" horiz-adv-x="691" 
d="M694 554l-27 -74h-149l-45 -131h150l-25 -74h-151l-68 -200h-85l69 200h-124l-69 -200h-85l69 200h-147l25 74h147l46 131h-147l24 74h148l70 203h83l-68 -203h123l70 203h85l-70 -203h151zM433 480h-124l-44 -131h123z" />
    <glyph glyph-name="dollar" unicode="$" horiz-adv-x="608" 
d="M553 615q0 -26 -37.5 -93t-54.5 -69q-15 -2 -45 20q-17 12 -33 25q-14 7 -1 29q18 29 35 57q25 41 21 45q-2 1 -5 1q-25 0 -73 -43q-73 -65 -67 -108q2 -17 99 -76q102 -62 116 -97q8 -18 8 -36q0 -76 -118 -129q-92 -42 -182 -47q-38 -93 -57 -95q-13 -2 -31.5 12
t-17.5 23q8 17 32 66q-39 9 -70 33q-37 30 -37 66q0 21 11 47q9 23 16 31q5 4 9 4q12 0 15 -20t40 -45q41 -28 95 -38q24 -4 50 -4q39 0 69 10q43 15 43 47q0 7 -2 14q-6 21 -75 74q-83 63 -92 73q-40 43 -40 94q0 49 41 101.5t103 86.5q48 26 91 33q11 18 31 60
q13 32 51 32q21 0 25 -9q8 -17 -34 -97q71 -35 71 -78z" />
    <glyph glyph-name="percent" unicode="%" horiz-adv-x="799" 
d="M767 260q-40 -103 -92 -168q-70 -88 -147 -85q-39 1 -75 60q-33 54 -29 91q16 125 99 228q72 89 131 99q16 2 29 -15t25 -17q6 -1 20 0q11 1 18 0q10 -2 21 -8q28 -18 28 -66t-28 -119zM742 784q5 -20 -282.5 -402.5t-306.5 -380.5q-18 2 -28.5 20t-7.5 32q1 6 425 562
q-108 -88 -178 -114q-92 -181 -206 -178q-38 1 -74 60q-34 55 -29 92q15 124 98 227q72 89 132 99q15 3 28.5 -14t25.5 -18q6 0 18.5 0.5t18.5 -0.5q11 -1 21 -8q28 -18 28 -66q0 -44 -23 -107q96 46 259 184q40 34 67 27q10 -3 14 -15zM327 731q-8 3 -16 3q-32 0 -59 -42
q-25 -37 -25 -72q0 -28 19 -44q16 -14 39 -14q9 0 18 2q35 76 35 133q0 28 -11 34zM686 417q-28 0 -66 -54q-32 -45 -47 -89q-11 -33 -8 -54l-1 -2q-3 -1 -6 -1q-6 0 -20 53q-35 -78 -35 -142q0 -51 28 -51q45 0 127 143q50 87 50 161q0 36 -22 36zM260 490q-70 11 -98 81
q-29 -74 -29 -127q0 -51 29 -51q36 0 98 97z" />
    <glyph glyph-name="ampersand" unicode="&#x26;" horiz-adv-x="692" 
d="M621 617q3 -30 -33 -99.5t-51 -68.5q-19 1 -52 20q-38 21 -34 38q3 10 35 59q30 46 30 58q0 4 -3 6q-13 6 -59 -29t-72 -70q-22 -30 -22 -53q0 -21 18 -35q40 -32 114 -43q4 -1 4 -6q0 -12 -14.5 -34.5t-26.5 -26.5q-6 -3 -46 6q-47 9 -60 10q-65 3 -95 -75
q-15 -39 -15 -62q0 -35 32 -43q14 -3 31 -3q57 0 137 34q62 27 93 50q3 3 7 3q8 0 16 -9t8 -16q0 -3 -2 -5q-54 -67 -133 -105q-68 -33 -133 -37q-12 -1 -28 3q-14 -41 -35.5 -80t-33.5 -40q-18 -3 -35 12t-17 29q0 8 13 31q18 32 29 62q4 8 8 15q-60 33 -72.5 60t-12.5 62
q0 83 50 127q58 51 134 53q-10 2 -20 8q-22 15 -35 46q-9 22 -1 48q19 60 99 123.5t147 69.5q11 18 37 76q8 20 28 36t41 16t21 -18q0 -47 -49 -131q53 -33 58 -72z" />
    <glyph glyph-name="quotesingle" unicode="'" horiz-adv-x="188" 
d="M266 586q-51 -89 -79 -109q-4 -3 -10 -3q-22 0 -29 15q-4 6 3 13q28 24 41 47q9 17 5 21q-29 13 -29 39q0 20 16 38q27 29 43 29q11 0 30 -9q26 -12 26 -34q0 -17 -17 -47z" />
    <glyph glyph-name="parenleft" unicode="(" horiz-adv-x="420" 
d="M575 802q0 -18 -37 -66q-57 -72 -87 -123q-85 -144 -119 -228q-48 -117 -48 -225q0 -33 6 -57q3 -12 7 -23q4 -38 -9.5 -67t-37.5 -29q-37 0 -61 45.5t-24 124.5q0 243 208 537q106 149 158 149q17 0 30.5 -12t13.5 -26z" />
    <glyph glyph-name="parenright" unicode=")" horiz-adv-x="558" 
d="M586 607q0 -234 -164 -420q-75 -86 -167 -149q-78 -53 -106 -53q-21 0 -21 24q0 26 39 68q49 51 98 101q105 114 152 215q51 110 51 236q0 81 -12 101q-15 16 -29 32q-4 7 -4 15q0 17 21 29.5t46 12.5q41 0 68.5 -58t27.5 -154z" />
    <glyph glyph-name="asterisk" unicode="*" horiz-adv-x="503" 
d="M440 770q0 -20 -25 -32q-13 -6 -54 -16q22 -7 30 -12q17 -10 18 -25q2 -10 -10.5 -22.5t-23.5 -10.5q-10 2 -42 26q-9 -27 -17 -53q-7 -20 -14 -25q-14 -14 -31 -3q-11 8 -11 23q0 11 11 41q-20 -12 -39 -24q-28 -16 -36 -12q-14 7 -12 22q1 13 36 37l42 28
q-40 24 -37 46q5 21 19 23q15 3 54 -21q28 69 49 73q13 2 23 -8q11 -11 -3 -50q27 19 52 19q12 0 16 -8q5 -12 5 -16z" />
    <glyph glyph-name="plus" unicode="+" horiz-adv-x="772" 
d="M689 356h-257v-266h-66v266h-258v61h258v264h66v-264h257v-61z" />
    <glyph glyph-name="comma" unicode="," horiz-adv-x="357" 
d="M233 16q-52 -89 -80 -110q-3 -2 -9 -2q-22 0 -30 15q-3 6 4 12q28 25 40 48q9 17 6 20q-30 14 -30 40q0 20 17 38q26 29 42 29q11 0 30 -9q27 -12 27 -34q0 -17 -17 -47z" />
    <glyph glyph-name="hyphen" unicode="-" horiz-adv-x="553" 
d="M502 294q5 -9 5 -25q0 -19 -6.5 -38t-14.5 -22q-3 -2 -21 -2q-20 0 -123 5q-92 5 -121 3.5t-54 21t-25 52.5q0 7 2 10q11 14 151 14q195 0 207 -19z" />
    <glyph glyph-name="hyphen" unicode="&#x2010;" horiz-adv-x="553" 
d="M502 294q5 -9 5 -25q0 -19 -6.5 -38t-14.5 -22q-3 -2 -21 -2q-20 0 -123 5q-92 5 -121 3.5t-54 21t-25 52.5q0 7 2 10q11 14 151 14q195 0 207 -19z" />
    <glyph glyph-name="period" unicode="." horiz-adv-x="347" 
d="M227 16q-22 -32 -43 -32q-14 0 -32 12q-26 18 -26 41q0 19 20 40q26 29 42 29q11 0 30 -9q27 -12 27 -36q0 -19 -18 -45z" />
    <glyph glyph-name="slash" unicode="/" horiz-adv-x="501" 
d="M705 838q5 -20 -287 -458.5t-311 -436.5q-18 1 -28.5 19t-7.5 32q4 18 543 821q25 37 66 37q21 0 25 -14z" />
    <glyph glyph-name="zero" unicode="0" horiz-adv-x="710" 
d="M632 427q-70 -181 -162 -295q-123 -154 -258 -150q-68 2 -131 105q-59 97 -51 162q19 149 97 286q67 118 159 201q85 75 148 85q27 5 50.5 -25t43.5 -31q11 -1 27 0q18 2 24 2q28 0 52 -16q49 -31 49 -115q0 -85 -48 -209zM507 698q-8 4 -18 4q-48 0 -115 -94
q-57 -80 -83 -156q-20 -58 -14 -95l-1 -4q-5 -2 -11 -2q-10 0 -36 94q-61 -137 -61 -250q0 -89 50 -89q79 0 222 250q39 69 64 151q23 78 23 132q0 49 -20 59z" />
    <glyph glyph-name="one" unicode="1" horiz-adv-x="432" 
d="M460 695q5 -20 -4 -29q-56 -61 -201 -306.5t-164 -314.5q-3 -12 -3 -22q0 -7 3 -18q1 -7 -1.5 -8.5t-6.5 -1.5q-17 0 -34 20q-38 44 -38 66q0 67 154 388q156 326 201 336q33 8 62 -36q20 -32 32 -74z" />
    <glyph glyph-name="two" unicode="2" horiz-adv-x="748" 
d="M756 558q-37 -145 -331 -305q-49 -27 -165 -94l4 1q13 1 29 1q141 0 211 -45q25 -16 44 -58q17 -37 15 -53q0 -9 -13 -9q-22 0 -51 17q-32 18 -115 18q-82 0 -155 -14q-28 -6 -99 -28q-55 -17 -65 -14q-15 4 -43 43.5t-28 66.5q0 7 3 13q9 17 80 33q243 192 285 225
q94 71 169 148q83 86 83 119q0 22 -35 22q-47 0 -167 -50q-10 -4 -97 -52q-66 -36 -91 -36q-27 0 -48 49q-20 45 -15 72q2 12 70 53q79 47 162 76q107 38 190 32q51 -3 113.5 -73t62.5 -134q0 -12 -3 -24z" />
    <glyph glyph-name="three" unicode="3" horiz-adv-x="730" 
d="M738 568q-20 -47 -79 -101q-65 -60 -149 -102q95 -51 95 -134q0 -21 -6 -43q-30 -96 -146 -162q-111 -62 -231 -62q-35 0 -65 6q-92 18 -138 78q-41 54 -36 126q4 48 36 103q37 63 81 63q14 0 14 -12q0 -11 -9 -16q-45 -22 -42 -84q3 -45 51 -75q44 -27 105 -29
q91 -3 176 37q80 39 93 84q3 12 3 24q0 42 -41 71q-83 -30 -158 -30q-70 0 -76 54q-8 80 87 80q63 0 116 -29q74 42 126 93q61 58 61 100q0 6 -1 11q-2 12 -40 12q-69 0 -164 -27q-85 -25 -186 -73q-6 -2 -11 9q-14 28 -14 78q0 12 3 15q47 62 177.5 114.5t231.5 52.5
q51 0 80 -16q26 -15 45.5 -66t19.5 -100q0 -30 -9 -50z" />
    <glyph glyph-name="four" unicode="4" horiz-adv-x="731" 
d="M690 599q5 -19 -3 -29q-52 -56 -157 -242q47 -7 76 -22q19 -11 32 -50q11 -34 11 -61q0 -16 -5 -16q-1 0 -3 1q-35 32 -166 47q-68 -130 -82 -180q-3 -12 -3 -22q0 -7 3 -18q1 -7 -1.5 -9t-6.5 -2q-17 0 -34 20q-38 44 -38 67q0 34 37 148q-160 -10 -239 -40
q-28 -10 -53 47q-22 49 -22 80q0 38 23 51q45 24 242 228q191 198 233 214q4 2 10 2q30 0 74 -36t43 -56q-1 -9 -25 -30q39 -37 54 -92zM488 580q-42 -31 -74 -57q-82 -67 -235 -217q50 10 206 26q53 144 103 248z" />
    <glyph glyph-name="five" unicode="5" horiz-adv-x="730" 
d="M715 690q1 -12 -8 -23.5t-22 -11.5t-28 13.5t-66 13.5q-57 0 -149 -18q-73 -14 -99 -23q-15 -5 -49 -85q-28 -66 -34 -90q131 62 270 55q42 -3 81.5 -75t33.5 -122q-5 -36 -52 -108q-58 -88 -132 -146q-95 -75 -196 -82q-95 -7 -178 56q-73 57 -72 107q1 42 37 68
q28 20 52 20q12 0 12 -10q0 -4 -2 -11.5t-2 -10.5q-1 -32 23.5 -57t56.5 -25q63 0 184.5 104.5t121.5 164.5q0 27 -46 27q-48 0 -115 -20t-92 -42.5t-71 -22.5t-55 16q-6 11 54 217q53 182 67 221q12 33 21 33q5 0 11 -7q16 -21 47 -22q22 -1 113 4q101 4 147 4q62 0 86 -6
q43 -11 50 -106z" />
    <glyph glyph-name="six" unicode="6" horiz-adv-x="657" 
d="M616 696q-17 -57 -83 -102q-2 -2 -128 -73q-78 -44 -110 -90q46 37 96 53q6 2 14 2q41 0 98 -43.5t62 -84.5q5 -45 -33 -127q-40 -88 -102 -154q-73 -78 -151 -94q-6 -1 -13 -1q-53 0 -128.5 51.5t-89.5 100.5q-7 25 -7 58q0 72 31 160q35 95 97 183q90 128 216 215
q101 70 139 68q26 -1 62.5 -51.5t29.5 -70.5zM395 395q-56 0 -135 -79q-9 -8 -21 21q-57 -119 -57 -197q0 -32 25 -32q54 0 137 105q80 101 80 156q0 26 -29 26z" />
    <glyph glyph-name="seven" unicode="7" horiz-adv-x="546" 
d="M606 653q2 -20 -9 -28q-67 -49 -275 -284t-239 -300q-7 -13 -7 -24t-4 -23q-8 -3 -19.5 6.5t-17.5 19.5q-28 50 -24 72q8 42 138 228q128 183 245 323q-84 -12 -142 -12q-55 0 -80 11q-21 10 -44 60q-20 44 -25 75q-4 25 7 32q16 11 30 -13q8 -14 84 -23q62 -8 113 -8
q34 0 99 6q69 8 100 8q61 1 70 -126z" />
    <glyph glyph-name="eight" unicode="8" horiz-adv-x="610" 
d="M625 666q-4 -66 -74 -132q-60 -51 -119 -102q62 -36 85 -66q32 -39 32 -101q0 -107 -153 -200q-139 -84 -252 -81q-39 1 -99.5 67t-59.5 107q1 73 89 153q50 46 150 109q-40 36 -48 45q-22 27 -22 60q0 109 110 203q106 90 219 90q36 0 90 -55t52 -97zM504 705
q-46 0 -132 -66q-90 -70 -89 -116q1 -41 36 -41q35 19 114 93q90 84 90 115q0 15 -19 15zM396 305q0 51 -70 68q-80 -47 -148 -107q-97 -86 -96 -142q1 -36 51 -33q59 2 156 72q107 77 107 142z" />
    <glyph glyph-name="nine" unicode="9" horiz-adv-x="667" 
d="M636 700q1 -25 -132.5 -344t-160.5 -355q-11 -14 -44 -14q-28 0 -52 11q-27 11 -32 31q-4 13 122 306q-105 -90 -140 -92q-52 -4 -102 60q-44 56 -48 105q-12 137 117 273q125 132 264 147q36 4 87 -87q18 42 22 51q5 15 18 15q25 0 53 -42q26 -38 28 -65zM480 661
q-26 36 -42 36q-28 0 -75.5 -34t-93.5 -86q-52 -59 -85 -125q-30 -61 -30 -98q0 -26 19 -26q51 0 228 153z" />
    <glyph glyph-name="colon" unicode=":" horiz-adv-x="426" 
d="M363 288q-22 -33 -43 -33q-14 0 -32 13q-26 18 -26 40q0 20 19 41q27 29 43 29q11 0 30 -9q27 -12 27 -36q0 -19 -18 -45zM203 16q-22 -32 -43 -32q-14 0 -32 12q-26 18 -26 41q0 19 20 40q26 29 42 29q11 0 30 -9q27 -12 27 -36q0 -19 -18 -45z" />
    <glyph glyph-name="semicolon" unicode=";" horiz-adv-x="352" 
d="M323 288q-22 -33 -43 -33q-14 0 -32 13q-26 18 -26 40q0 20 20 41q26 29 42 29q11 0 30 -9q27 -12 27 -36q0 -19 -18 -45zM211 16q-51 -89 -79 -110q-3 -2 -9 -2q-22 0 -30 15q-3 6 4 12q28 25 40 48q9 17 6 20q-30 14 -30 40q0 20 17 38q26 29 42 29q11 0 30 -9
q26 -12 26 -34q0 -17 -17 -47z" />
    <glyph glyph-name="less" unicode="&#x3c;" horiz-adv-x="662" 
d="M541 163l-456 194v65l456 193v-74l-369 -152l369 -151v-75z" />
    <glyph glyph-name="equal" unicode="=" horiz-adv-x="955" 
d="M831 480h-671v61h671v-61zM831 242h-671v61h671v-61z" />
    <glyph glyph-name="greater" unicode="&#x3e;" horiz-adv-x="670" 
d="M628 357l-456 -194v75l369 151l-369 152v74l456 -193v-65z" />
    <glyph glyph-name="question" unicode="?" horiz-adv-x="668" 
d="M666 658q2 -11 2 -22q0 -67 -63 -129q-60 -57 -238 -205q-105 -87 -105 -124q0 -2 1 -6t1 -7q0 -7 -8 -8q-7 -1 -12 3q-12 11 -24.5 23t-15.5 26q-4 32 49 101q41 54 84 91l180 159q50 44 67 104q2 6 -3.5 11.5t-11.5 3.5q-60 -17 -107 -44q-98 -56 -204 -175
q-12 -13 -33 22q-18 31 -20 48q-2 20 79 100q74 72 121 105q71 50 129 50q12 0 22 -2q32 -7 68 -50q33 -40 42 -75zM239 16q-22 -32 -43 -32q-14 0 -32 12q-26 18 -26 41q0 19 19 40q27 29 43 29q11 0 30 -9q27 -12 27 -36q0 -19 -18 -45z" />
    <glyph glyph-name="at" unicode="@" horiz-adv-x="888" 
d="M884 342q0 -106 -50 -184q-59 -90 -160 -90q-77 0 -98 80q-57 -82 -134 -82q-61 0 -96 37t-35 99q0 92 55 173q62 90 150 90q85 0 105 -88l20 74h71l-49 -182q-20 -74 -20 -91q0 -52 51 -52q73 0 114 73q33 59 33 138q0 96 -40.5 152t-118.5 87q-69 28 -145 28
q-155 0 -257 -104.5t-102 -260.5q0 -148 98 -238q94 -87 244 -87q139 0 288 91l21 -32q-152 -102 -319 -102q-163 0 -273 100.5t-115 264.5q-5 176 125 299q127 120 304 120q139 0 234 -84q99 -89 99 -229zM595 338q0 31 -19 54t-50 23q-56 0 -99 -86q-38 -73 -38 -135
q0 -33 17 -56t49 -23q62 0 104 84q36 71 36 139z" />
    <glyph glyph-name="A" unicode="A" horiz-adv-x="803" 
d="M864 718q-56 -111 -136 -377q-37 -123 -37 -253q0 -76 22 -88q16 -8 33 -8q46 0 95 59q7 8 14 -8q9 -17 -11 -44q-24 -33 -67 -57t-80 -24q-67 0 -99 70q-24 53 -24 128q0 25 3 52q-48 24 -81 24q-39 0 -128 -13q-81 -12 -126 -10q-110 -137 -128 -166q-23 -35 -38 -35
q-7 0 -10 6q-17 29 -17 50q0 9 3 17q6 23 98 164q-18 13 -27 28t-13 54q-3 37 1 57q5 27 18 27q4 0 8 -4q23 -20 89 -48q41 56 119 156q114 139 233 256q123 119 160 125q23 4 42 -22l18 -34q23 -34 60 -55q16 -9 6 -27zM661 584q-118 -75 -244 -205q-19 -19 -63 -72
q98 13 161 12q53 -1 79 -13q24 109 67 278z" />
    <glyph glyph-name="B" unicode="B" horiz-adv-x="712" 
d="M870 570q-19 -79 -124 -141q-92 -54 -189 -64q124 -60 124 -162q0 -58 -46 -111q-38 -44 -131 -77q-88 -30 -163 -30q-48 0 -72 14q-55 32 -90 129q-40 -81 -48 -110q-3 -11 -3 -21q0 -8 3 -18q1 -7 -1.5 -9t-6.5 -2q-17 0 -34 20q-38 44 -38 67q0 36 72 204
q67 156 150 321q-71 -14 -96 -8q-24 6 -62 41q-34 30 -50 55q-12 20 2 29q64 37 305 66q34 57 47 63q3 2 8 2q36 0 81 -54q79 2 158 -9q72 -11 100.5 -25t68.5 -75q42 -65 35 -95zM735 576q-3 10 -22 15q-78 21 -198 21q-33 0 -63 -3q-45 -69 -101 -167q127 6 214 27
q104 26 160 84q13 15 10 23zM307 367q-53 -96 -96 -177q51 -109 105 -117q61 -9 144.5 58.5t83.5 123.5q0 46 -99 81q-74 26 -138 31z" />
    <glyph glyph-name="C" unicode="C" horiz-adv-x="644" 
d="M699 676q2 -34 -38 -123t-64 -100q-2 -1 -5 -1q-18 0 -69 30q-54 31 -48 47q29 48 69 116q20 34 20 42q0 6 -9 6q-32 0 -107 -68q-86 -77 -157 -185q-33 -52 -58 -114q-32 -78 -32 -134q0 -61 38 -87q26 -17 70 -17q64 0 146 33q78 30 127 71q4 3 9 3q8 0 23.5 -14.5
t7.5 -24.5q-65 -72 -149 -123q-98 -60 -181 -60q-77 0 -159 48q-78 46 -97 93q-5 15 -5 42q0 59 25 140q30 95 84 183q173 279 375 316q9 2 20 2q55 0 108 -40.5t56 -80.5z" />
    <glyph glyph-name="D" unicode="D" horiz-adv-x="755" 
d="M872 529q-11 -49 -53 -131q-50 -100 -115 -178q-70 -84 -145 -145q-106 -87 -180 -87q-58 0 -120 45q-53 38 -84 89q-37 -76 -45 -103q-3 -12 -3 -22q0 -7 3 -18q1 -7 -1.5 -8.5t-6.5 -1.5q-17 0 -34 20q-38 44 -38 66q0 36 72 203q66 154 149 319q-62 -8 -82 -5
q-34 7 -82 45t-48 61q0 29 142 59q85 17 172 28q34 55 47 61q3 2 7 2q35 0 80 -52q169 7 222 -17q49 -23 94 -80q51 -65 51 -125q0 -13 -2 -25zM727 603q-12 19 -98 19q-72 0 -147 -11q-12 -2 -32 -5q-105 -165 -234 -413q69 -101 112 -102q46 -1 122 56t150 154
q58 74 96 162q35 79 35 121q0 13 -4 19z" />
    <glyph glyph-name="E" unicode="E" horiz-adv-x="650" 
d="M820 742q9 -2 9 -33q0 -33 -8.5 -77.5t-14.5 -44.5q-7 0 -94.5 10.5t-168.5 10.5q-35 0 -70 -1l-21 -2q-53 -80 -122 -198q143 9 215 9q40 0 46.5 -4t6.5 -24q0 -34 -12 -46.5t-152 -40.5q-135 -26 -180 -29q-56 -101 -89 -170q53 -9 196 12q55 8 97 8q59 0 94 -16
q19 -8 32.5 -36t13.5 -47q-1 -21 -13 -16q-40 19 -97 19t-121 -19q-137 -41 -223 -41q-14 0 -20 2q-26 8 -55 61q-27 50 -26 70q2 35 75 191q69 146 151 297q-106 -14 -123 -12t-35 66q-10 36 -20 73q-1 3 -1 7q0 19 22 23q103 20 265 26q29 42 43 42q28 0 69 -41
q222 -1 331 -29z" />
    <glyph glyph-name="F" unicode="F" horiz-adv-x="586" 
d="M809 742q8 -2 8 -25q0 -24 -13 -72q-14 -58 -30 -56q-130 20 -221 20q-44 0 -92 -2l-21 -2q-52 -81 -122 -200q218 4 254 -24q6 -4 8 -25q1 -21 -2.5 -34.5t-11.5 -11.5q-20 5 -65 5q-66 0 -141 -10q-80 -10 -112 -24q-115 -207 -130 -263q-3 -11 -3 -21q0 -8 2 -18
q2 -7 -0.5 -9t-6.5 -2q-17 0 -34 20q-16 17 -32 36.5t-16 32.5q0 38 77 209q71 158 157 322q-111 -15 -127 -13q-17 2 -36 66q-9 36 -19 73q-2 3 -2 7q0 19 22 23q104 20 267 26q28 42 41 42q29 0 70 -41q221 -1 331 -29z" />
    <glyph glyph-name="G" unicode="G" horiz-adv-x="640" 
d="M699 686q2 -34 -38 -123t-64 -100q-2 -1 -5 -1q-18 0 -69 30q-54 31 -48 47q29 48 69 116q20 34 20 42q0 6 -10 6q-35 0 -107 -63q-86 -76 -156 -190q-99 -165 -99 -263q0 -40 19 -57q34 -27 75 -27q49 0 101 36q47 34 83 86q-57 -4 -100 -3q-31 0 -37.5 2t-17.5 13
q-18 17 -18 60q0 16 5 25q14 24 23 26q2 1 49 3q226 9 244 -17q11 -16 1 -61q17 -24 17 -45q0 -8 -2 -16q-26 -78 -125 -156q-102 -80 -182 -80q-81 0 -173.5 50t-111.5 104q-5 16 -5 44q0 62 23 141q28 95 82 182q93 151 204 232q85 62 169 76q9 1 18 1q55 0 109 -39.5
t57 -80.5z" />
    <glyph glyph-name="H" unicode="H" horiz-adv-x="676" 
d="M873 725q5 -19 -4 -29q-64 -69 -241 -385q9 -10 25 -37q18 -30 18 -41q0 -28 -60 -23q-10 1 -38 1q-80 -149 -92 -193q-3 -11 -3 -21q0 -8 3 -18q1 -7 -1.5 -9t-6.5 -2q-17 0 -34 20q-38 44 -38 67q0 30 52 157h-200q-97 -193 -121 -265q-8 -24 -14 -32q-12 -14 -28 -4
q-37 22 -38 72q-1 41 81 233q-30 2 -37 5q-12 5 -43 37q-28 28 -35 40q-4 4 -4 9q0 17 33.5 21t138.5 8q170 371 214 393q4 1 9 1q19 0 45 -26t34 -53q5 -18 -4 -28q-46 -60 -164 -282q117 3 190 0q76 168 150 307q81 151 104 162q3 2 8 2q22 0 58 -30.5t43 -56.5z" />
    <glyph glyph-name="I" unicode="I" horiz-adv-x="548" 
d="M622 679q-63 -92 -166 -278q-101 -182 -147 -285q95 -8 114.5 -13.5t32.5 -32.5q12 -22 12 -42q0 -8 -3 -11q-10 -10 -124 -20q-109 -9 -203 -9q-84 0 -92 9q-36 38 -36 88q0 16 5 26q12 21 186 12q85 229 237 529q-96 -24 -119 -24q-27 0 -49 11q-44 23 -44 100
q0 27 8 41q13 24 289 23q23 36 36 36q26 0 65 -37q121 -3 138 -8q25 -7 56 -35t31 -44q0 -18 -101 -28z" />
    <glyph glyph-name="J" unicode="J" horiz-adv-x="575" 
d="M1010 701q-6 -7 -81 -15l-166 -16q-42 -74 -159 -275q-153 -257 -196 -312q-87 -113 -172 -115q-68 0 -140 78q-38 42 -66 90q-6 12 -3 41q4 30 16 30q5 0 11 -9q20 -36 50 -66q45 -46 88 -46q63 0 148 118q62 86 138 240q46 97 93 194q-67 -16 -91 -16q-27 0 -48 11
q-44 23 -44 100q0 26 9 41.5t259 19.5q27 41 44 41q38 0 79 -40h7q111 0 138 -8q32 -9 60 -34.5t28 -43.5q0 -4 -2 -8z" />
    <glyph glyph-name="K" unicode="K" horiz-adv-x="751" 
d="M942 648q1 -31 -22 -36q-115 -27 -257 -92q-215 -99 -338 -176q28 -78 62 -145q64 -122 111 -124q53 -2 120 53q53 44 76 85q3 4 6 4q8 0 16 -16t8 -29q0 -6 -2 -9q-29 -59 -87 -115q-80 -75 -155 -73q-123 4 -231 176q-23 36 -40 84q-95 -176 -108 -223q-3 -12 -3 -22
q0 -7 2 -18q2 -7 -0.5 -8.5t-6.5 -1.5q-17 0 -35 20q-37 44 -37 66q0 63 170 414.5t210 371.5q3 2 7 2q23 0 58.5 -30.5t43.5 -56.5q5 -19 -4 -29q-54 -58 -192 -298q55 51 147 121q112 85 193 132q161 92 211 92q8 0 14 -3q21 -8 41.5 -46t21.5 -70z" />
    <glyph glyph-name="L" unicode="L" horiz-adv-x="623" 
d="M593 23q-1 -21 -12 -16q-41 19 -97 19q-57 0 -121 -19q-138 -41 -223 -41q-14 0 -21 2q-25 8 -54 69q-27 55 -27 77q2 87 162 386q158 296 211 320q3 2 7 2q23 0 58.5 -30.5t42.5 -56.5q6 -19 -3 -29q-54 -58 -194 -298q-138 -236 -162 -306q54 -9 197 12q55 8 97 8
q59 0 94 -16q18 -8 32 -36t13 -47z" />
    <glyph glyph-name="M" unicode="M" horiz-adv-x="901" 
d="M1017 686q0 -14 -91 -184q-104 -195 -136 -278q-21 -55 -21 -93q0 -49 26 -56q9 -2 17 -2q50 0 123 91q3 4 15 1q12 -4 15 -9q6 -9 6 -20q0 -18 -16 -38q-98 -120 -197 -120q-24 0 -44 9q-30 12 -62 60q-36 54 -36 104q0 10 1 20q10 55 37 134q29 88 58 141
q-224 -268 -255 -293q-10 -8 -22 -8q-17 0 -31.5 14t-16.5 37q-4 36 -2 154q2 150 2 163q-89 -132 -175 -305q-95 -187 -115 -283q-4 -19 -1 -35q2 -11 0 -13q-3 -2 -7 -2q-17 0 -34 20q-40 47 -38 66q20 136 185 496q164 355 208 369q6 2 14 2q46 0 111 -65q2 -3 2 -20
q0 -34 -17 -190.5t-17 -199.5q0 -27 5 -29q10 -3 157 177q156 193 166.5 202t20.5 19q15 13 24 14q38 4 87 -11q53 -16 54 -39z" />
    <glyph glyph-name="N" unicode="N" horiz-adv-x="768" 
d="M1167 787q1 -3 1 -5q0 -7 -13 -13q-9 -3 -18 -7q-43 -23 -123 -106q-93 -95 -180 -216q-62 -87 -149 -249q-79 -146 -88 -156q-18 -19 -79 -36.5t-100 -17.5q-19 0 -24.5 6t-5.5 55q0 72 11 204q10 120 17 150q-1 3 -3 6q-3 0 -11 -6q-37 -31 -168 -215
q-109 -154 -163 -240q-10 -16 -24 -1q-26 29 -26 104q0 18 2 36.5t88 158.5q77 126 150 234q209 309 253 324q14 5 55.5 -21t44.5 -46q2 -18 -45 -266q-43 -223 -53 -267q-3 -13 -2 -17q0 -5 4 -4q6 3 15 17q44 75 133 201q99 142 163.5 217t136.5 139q66 59 105 79
q4 2 10 2q19 0 49 -16.5t37 -27.5z" />
    <glyph glyph-name="O" unicode="O" horiz-adv-x="655" 
d="M760 662q1 -5 1 -14q0 -57 -31 -164q-38 -125 -93 -215q-153 -250 -325 -296q-16 -4 -37 -4q-61 0 -140 34q-72 31 -85 53q-25 40 -25 122q0 193 114 371q82 129 201 213q99 71 137 63q21 -5 46 -23t34 -35q40 19 67 21q31 2 80 -43t56 -83zM634 683q-22 -7 -42 -17
q-47 -24 -78 -59q-24 -27 -41 -84q-13 -46 -13 -69q0 -17 -27 -17q-19 0 -22 15q-4 23 -4 59q0 94 34 158q-109 -96 -176 -201q-81 -128 -81 -287q0 -79 26 -92q7 -3 16 -3q47 0 131 72.5t148.5 168t103.5 218.5q32 103 25 138z" />
    <glyph glyph-name="P" unicode="P" horiz-adv-x="645" 
d="M784 547q-4 -57 -63 -128q-61 -74 -149 -119q-100 -52 -202 -45q-91 5 -100 74q-144 -254 -161 -317q-3 -12 -3 -22q0 -7 3 -18q1 -7 -1.5 -8.5t-6.5 -1.5q-17 0 -34 20q-38 44 -38 66q0 39 84 228q77 175 167 347q-33 -8 -105 -23q-37 -6 -83 36q-15 14 -53 59
q-7 8 -7 15q0 15 30 26q43 16 145 37q98 19 173 27q24 36 37 36q24 0 61 -33q132 -5 209 -40q36 -16 68 -87.5t29 -128.5zM690 592q2 15 -7 22q-18 15 -82 24t-142 6q-59 -89 -143 -234q6 -20 19 -26q24 -11 56 -11q76 0 165 59q50 33 90.5 81.5t43.5 78.5z" />
    <glyph glyph-name="Q" unicode="Q" horiz-adv-x="624" 
d="M760 662q1 -5 1 -14q0 -57 -31 -164q-38 -125 -93 -215q-134 -219 -287 -283q-2 -41 20 -81q25 -44 64 -44q7 0 15 2q32 7 38 -5q4 -9 -6 -20q-39 -44 -101 -44q-15 0 -30 3q-58 13 -87 66q-26 47 -20 108q-58 8 -123 39q-59 27 -70 46q-25 40 -25 122q0 193 114 371
q82 129 201 213q99 71 137 63q21 -5 46 -23t34 -35q40 19 67 21q31 2 80 -43t56 -83zM634 683q-22 -7 -42 -17q-47 -24 -78 -59q-24 -27 -41 -84q-13 -46 -13 -69q0 -17 -27 -17q-19 0 -22 15q-4 23 -4 59q0 94 34 158q-109 -96 -176 -201q-81 -128 -81 -287q0 -18 2 -34
q28 14 60 4q30 -8 54 -35q112 72 205 209q65 97 104 220q32 103 25 138z" />
    <glyph glyph-name="R" unicode="R" horiz-adv-x="694" 
d="M794 547q-7 -64 -132 -116q-103 -42 -268 -70l-25 -5q85 -96 156 -183q108 -131 143 -213q2 -4 2 -9q0 -12 -10.5 -22t-21.5 -10q-9 0 -13 6q-25 35 -188 186q-72 68 -191 156q-112 -203 -126 -255q-3 -12 -3 -22q0 -7 2 -18q2 -7 -0.5 -8.5t-6.5 -1.5q-17 0 -34 20
q-38 44 -38 66q0 39 83 227q77 175 166 346q-31 -7 -103 -21q-37 -6 -84 36q-15 14 -52 59q-7 8 -7 15q0 15 30 26q43 16 145 37q97 19 173 27q24 36 37 36q23 0 60 -33q137 -5 210 -40q35 -17 68 -85q35 -73 28 -131zM690 613q-3 35 -223 27q-55 -84 -133 -217q8 2 15 4
q125 30 230 84q114 59 111 102z" />
    <glyph glyph-name="S" unicode="S" horiz-adv-x="688" 
d="M714 691q0 -35 -51 -126t-73 -93q-21 -3 -62 27q-22 16 -44 33q-20 10 -2 40q22 35 44 71q33 52 33 64q0 5 -7 5q-34 0 -100 -59q-98 -88 -90 -146q2 -20 70 -64q65 -41 131 -82q75 -51 90 -89q11 -24 11 -49q0 -110 -179 -183q-148 -60 -271 -55q-72 3 -125.5 34.5
t-72.5 83.5q-4 10 -4 24q0 28 15 65q12 31 22 41q6 6 12 6q17 0 20 -26q5 -29 55 -63q55 -38 128 -51q33 -6 68 -6q53 0 93 14q58 21 58 64q0 9 -2 19q-8 28 -102 100q-112 86 -125 99q-53 58 -53 127q0 67 53 135q64 82 159 129q73 36 125 37q50 2 113 -40t63 -86z" />
    <glyph glyph-name="T" unicode="T" horiz-adv-x="487" 
d="M760 654q-3 -30 -27 -25q-76 17 -249 15q-86 -130 -206 -346q-122 -222 -138 -280q-3 -11 -3 -21q0 -8 3 -18q2 -7 -1 -9t-6 -2q-18 0 -35 20q-38 44 -38 67q0 39 84 231q79 180 166 348q-82 -10 -108 -10q-72 0 -97 27q-23 24 -31 77q-2 11 -5 67q-2 32 17 32q5 0 8 -4
q18 -28 41 -36q28 -11 96 -11q40 0 163 7q25 39 36 45q3 1 8 1q29 0 71 -43q198 -7 224 -31q12 -10 20.5 -42.5t6.5 -58.5z" />
    <glyph glyph-name="U" unicode="U" horiz-adv-x="601" 
d="M911 804q0 -21 -31 -38q-84 -45 -262 -392q-44 -92 -89 -184q-53 -103 -110 -150q-72 -61 -172 -58q-73 2 -127 34.5t-71 86.5q-12 36 -12 101q0 156 52 288q42 106 107 203t110 121q11 6 26 6q39 0 78.5 -32t39.5 -62q0 -16 -14 -25q-92 -65 -180 -278
q-56 -134 -56 -251q0 -107 54 -107q48 0 127 114q45 64 160 264q186 324 314 369q15 6 32 6q24 -1 24 -16z" />
    <glyph glyph-name="V" unicode="V" horiz-adv-x="498" 
d="M865 756q2 -18 -2 -18q-1 0 -11 5q-22 12 -55 3q-36 -9 -92 -70q-66 -72 -184 -242q-101 -152 -203 -304q-87 -129 -127 -165q-6 -6 -24 -1q-36 9 -86 46t-56 58q-10 43 71 391q82 354 114 362q13 3 31 -5q31 -15 62 -52q23 -28 34 -53q5 -12 1 -38q-4 -21 -69 -248
q-60 -206 -60 -279q0 -12 3 -13q8 -3 131 188q153 236 198 299q87 118 144 172q68 65 123 65q11 0 23 -3q28 -7 34 -98z" />
    <glyph glyph-name="W" unicode="W" horiz-adv-x="851" 
d="M1204 789q2 -16 -7 -21q-79 -46 -159 -140q-35 -42 -138 -184q-193 -265 -212 -291q-87 -115 -131 -155q-6 -5 -23 -1q-37 9 -87 46t-55 58q-2 9 20 90q27 101 35 143q-211 -322 -264 -369q-6 -6 -23 -1q-37 9 -87 46t-55 58q-11 43 70 391q82 354 114 362q13 3 32 -5
q30 -15 61 -52q23 -28 34 -53q6 -12 1 -38q-4 -21 -69 -248q-59 -206 -59 -279q0 -12 2 -13q10 -4 117 162q110 171 175 293q22 43 42 96q13 33 26 44q7 6 31 -5q31 -15 61 -52q24 -28 35 -53q5 -12 1 -38q-6 -30 -17 -66q-14 -48 -24 -89q-9 -35 -42 -157q-23 -83 -23 -101
q0 -7 3 -7q6 -3 128 176q144 212 201 282q151 185 254 218q10 3 20 -13t12 -34z" />
    <glyph glyph-name="X" unicode="X" horiz-adv-x="759" 
d="M831 687q-1 -12 -13 -26q-47 -49 -159 -142l-214 -176q15 -109 51 -179q34 -65 72 -73q10 -2 20 -2q53 0 122 69q5 6 10 6q14 0 14 -29q0 -28 -16 -45q-40 -45 -70 -65q-66 -44 -144 -38q-52 4 -107 77q-48 67 -80 161q-85 -81 -119 -117q-64 -68 -100 -125
q-10 -16 -13 -32q-2 -11 -6 -12q-8 -2 -17.5 9.5t-13.5 21.5q-14 40 -14 59q0 10 2 17q11 27 85.5 117t165.5 186q-16 109 -16 232q0 126 15 154q11 19 47 37t63 17q16 -1 20.5 -7t5.5 -23q4 -46 3 -135q-2 -92 1 -135q31 30 191 178q95 87 128 127q14 18 33 7
q21 -12 38.5 -51.5t14.5 -62.5z" />
    <glyph glyph-name="Y" unicode="Y" horiz-adv-x="584" 
d="M779 795q24 -22 24 -42q0 -18 -41 -83q-42 -74 -158 -275q-153 -256 -196 -312q-87 -113 -172 -115q-68 0 -140 78q-38 42 -66 90q-6 12 -3 41q4 30 16 30q5 0 11 -9q20 -36 50 -66q45 -46 88 -46q96 0 240 271q-53 -36 -104 -30q-27 3 -70 38q-53 42 -58 89q-2 19 -2 41
q0 92 34 190q34 94 69 113q56 28 121 28q38 0 38 -20t-31 -79q-43 -84 -51 -102q-66 -158 -66 -201q0 -23 22 -23q36 0 93 38q61 40 90 88q27 45 92 186q49 106 70 118q6 4 16 4q42 0 84 -40z" />
    <glyph glyph-name="Z" unicode="Z" horiz-adv-x="665" 
d="M851 649q-24 -35 -124 -120q-67 -55 -133 -109q-10 -9 -187 -154q-145 -118 -158 -134q-2 -4 -2 -7q3 -8 44 -8q24 0 83 3t79 3q78 0 126 -48q20 -20 33 -65q6 -20 -2 -20q-2 0 -4 1q-52 23 -105 23q-27 0 -114 -15q-72 -12 -143 -24q-84 -13 -121 -9q-17 2 -51 44
t-34 68q0 4 1 8q13 41 291 303q259 244 305 276q-22 8 -97 6q-84 -3 -108 1q-98 15 -123 49.5t-18 86.5q2 13 8 13q5 0 11 -6q21 -21 116 -28q58 -4 169 12q121 16 143 16q15 0 23.5 -2.5t29.5 -49.5q23 -53 59 -79q18 -12 3 -35z" />
    <glyph glyph-name="bracketleft" unicode="[" horiz-adv-x="399" 
d="M311 -50h-173v880h173v-42h-95v-795h95v-43z" />
    <glyph glyph-name="backslash" unicode="\" horiz-adv-x="558" 
d="M499 -35h-85l-452 851h85z" />
    <glyph glyph-name="bracketright" unicode="]" horiz-adv-x="376" 
d="M302 -55h-173v43h94v795h-94v42h173v-880z" />
    <glyph glyph-name="asciicircum" unicode="^" horiz-adv-x="488" 
d="M397 689h-38l-107 115l-119 -115h-39l128 178h71z" />
    <glyph glyph-name="underscore" unicode="_" horiz-adv-x="541" 
d="M549 -135h-559v58h559v-58z" />
    <glyph glyph-name="grave" unicode="`" horiz-adv-x="451" 
d="M322 806q0 -7 -5.5 -14.5t-12.5 -7.5q-23 0 -89 41q-69 43 -69 64q0 13 9 40q11 31 19 31t14 -12q28 -62 103 -114q31 -22 31 -28z" />
    <glyph glyph-name="a" unicode="a" 
d="M485 143q-44 -59 -95 -102q-71 -59 -129 -59q-59 0 -75 48q-46 -49 -86 -44q-34 5 -64 44.5t-29 88.5q2 75 87 170t154 93q30 -2 56 -56q25 30 34 32q17 6 53.5 -10t33.5 -40q-1 -8 -36 -58q-96 -135 -96 -183q0 -11 13 -11q36 0 136 120q13 15 26 15q24 0 24 -28
q0 -11 -7 -20zM264 272q-2 20 -8 21q-27 4 -91 -101q-51 -84 -51 -116q0 -6 2 -6q16 -4 50 37q27 35 40 61q30 62 58 104z" />
    <glyph glyph-name="b" unicode="b" horiz-adv-x="459" 
d="M533 144q-38 -54 -73 -76q-42 -26 -100 -22q-23 2 -47 11q-80 -86 -152 -90q-27 -2 -76 39t-56 66q-5 18 -5 39q0 108 124 309q128 207 223 235q14 4 49 -13t42 -36q5 -15 -9 -25q-30 -24 -87 -85q-65 -71 -118 -144q-128 -177 -128 -262q0 -44 26 -44q23 0 93 74
q-31 37 -31 77q0 11 2 23q9 68 53 114q42 43 85 37q21 -3 54 -36.5t33 -57.5q2 -74 -81 -173l3 -1q16 -2 28 -2q31 0 53 19q14 11 48 55q12 15 26 15q27 0 27 -28q0 -10 -6 -18zM362 294q-2 2 -7 2q-14 0 -33 -14q-22 -17 -35 -44.5t-13 -47.5q0 -15 7 -24q94 118 81 128z
" />
    <glyph glyph-name="c" unicode="c" horiz-adv-x="325" 
d="M401 148q-23 -37 -71 -83q-80 -77 -164 -77q-33 0 -79.5 23.5t-58.5 48.5q-10 20 -10 51q0 73 47 145q41 64 95 98t100 28q22 -4 55 -31q36 -30 34 -56q-2 -29 -31 -75q-10 -16 -25 -16q-17 0 -35.5 18t-20.5 28q-1 11 9 30t8 20q-2 2 -4 2q-14 0 -40.5 -29t-53.5 -76
t-27 -89q0 -20 6 -33q10 -20 47 -20q56 0 108 48q25 23 67 76q10 13 22 13q26 0 26 -28q0 -8 -4 -16z" />
    <glyph glyph-name="d" unicode="d" horiz-adv-x="414" 
d="M592 595q-68 -88 -153 -234q-70 -122 -104 -195q-39 -86 -39 -97q0 -10 13 -10q37 0 138 123q12 15 26 15q24 0 24 -29q0 -11 -7 -21q-44 -60 -96 -104q-72 -61 -130 -61q-60 0 -76 49q-47 -50 -87 -45q-35 5 -65 46t-29 91q2 63 77 162q81 107 150 110q42 3 68 -47
q157 277 202 305q6 3 15 3q24 0 51 -15.5t27 -32.5q0 -7 -5 -13zM266 280q-1 21 -7 22q-13 2 -42 -30.5t-54 -72.5q-51 -81 -51 -113q0 -15 10 -15q16 0 48 42q26 35 39 61q30 63 57 106z" />
    <glyph glyph-name="e" unicode="e" horiz-adv-x="330" 
d="M405 148q-23 -37 -71 -83q-80 -77 -164 -77q-33 0 -79.5 23.5t-58.5 48.5q-10 20 -10 51q0 73 47 145q41 64 95 98t100 28q22 -4 55 -31q36 -30 34 -56q-4 -52 -46.5 -102t-78.5 -53q-25 -1 -79 30q-15 -36 -15 -66q0 -20 5 -29q12 -20 48 -20q55 0 107 48q25 23 67 76
q10 13 22 13q26 0 26 -28q0 -8 -4 -16zM258 300q-7 5 -31 -17t-48 -58q22 -12 30 -10q15 3 33 33t18 46q0 5 -2 6z" />
    <glyph glyph-name="f" unicode="f" horiz-adv-x="353" 
d="M479 571q-71 -57 -196 -205q30 5 44 -40q9 -31 9 -66q0 -82 -32 -168q23 20 68 73q22 25 34 25q9 0 18 -7.5t9 -16.5q0 -20 -58.5 -84t-114.5 -84q-58 -108 -72 -130q-59 -90 -104 -90q-36 0 -79 26q-46 27 -58 62q-4 11 -4 29q0 62 34 165q41 122 115 249
q80 138 172 240t144 108q19 2 49.5 -23t30.5 -46q0 -10 -9 -17zM247 241q-7 3 -17.5 -13t-16.5 -39q-13 -49 0 -89q38 93 38 130q0 10 -4 11zM178 24q-36 54 -30 132q-35 -80 -64 -169q-30 -92 -30 -122q0 -9 3 -11q30 -15 121 170z" />
    <glyph glyph-name="g" unicode="g" 
d="M483 140q-97 -124 -212 -170q-4 -44 -19.5 -92.5t-32.5 -70.5q-25 -30 -69 -47q-38 -15 -77 -15q-19 0 -33 4q-26 8 -55 43t-29 68q0 17 9 30q17 24 91 51q91 34 110 45q3 13 8 33q-36 -38 -74 -33q-34 5 -64 44.5t-29 88.5q2 75 87 170t154 93q30 -2 56 -56q25 30 34 32
q17 6 53.5 -10t33.5 -40q-1 -8 -36 -58q-39 -54 -58 -90q-33 -64 -41 -102q-2 -8 -1 -12t4 -3q49 15 147 133q19 22 38 11q13 -8 13 -25q0 -11 -8 -22zM264 272q-2 20 -8 21q-27 4 -91 -101q-51 -84 -51 -116q0 -6 2 -6q16 -4 50 37q27 35 40 61q30 62 58 104zM159 -82
q-34 -16 -69 -32q-50 -27 -45 -42q7 -25 37 -25q15 0 30 10q37 23 47 89z" />
    <glyph glyph-name="h" unicode="h" horiz-adv-x="452" 
d="M532 150q-26 -40 -92 -103q-44 -43 -65 -57q-41 -28 -80 -25q-21 1 -55 38t-34 66q0 21 58 133q-27 -24 -44 -40q-42 -39 -84 -77q-47 -46 -76 -86q-7 -10 -21 -10q-21 0 -48 20t-28 31q-1 63 165 330q165 264 222 295q6 3 14 3q23 0 48.5 -19.5t25.5 -39.5q0 -10 -8 -18
q-31 -31 -123 -169q-89 -134 -145 -232q63 58 127 116q81 74 106 77q25 4 42 -31q15 -31 15 -66q0 -22 -7 -31q-97 -112 -111 -189q-3 -16 -2 -19q0 -4 4 -4q23 -2 81 59q39 41 70 81q10 14 24 14q27 0 27 -28q0 -10 -6 -19z" />
    <glyph glyph-name="i" unicode="i" horiz-adv-x="281" 
d="M352 444q-26 -39 -51 -39q-16 0 -37 15q-31 21 -31 47q0 23 23 48q31 34 50 34q12 0 35 -10q32 -15 32 -42q0 -23 -21 -53zM355 146q-50 -83 -111.5 -121.5t-125.5 -38.5q-29 0 -54 9q-21 7 -43 38.5t-23 62.5q-2 42 73 158q71 109 97 123q7 4 15 4q23 0 48 -22.5
t26 -40.5q1 -7 -7 -21q-29 -41 -93 -139q-44 -71 -38 -95q4 -13 26 -13q38 0 86 38q33 26 78 88q14 19 29 19q23 0 23 -27q0 -11 -6 -22z" />
    <glyph glyph-name="j" unicode="j" horiz-adv-x="214" 
d="M314 444q-26 -39 -51 -39q-16 0 -37 15q-30 21 -30 47q0 23 22 48q31 34 50 34q13 0 35 -10q32 -15 32 -42q0 -23 -21 -53zM286 140q-97 -124 -212 -170q-4 -44 -19.5 -92.5t-33.5 -70.5q-24 -30 -68 -47q-39 -15 -78 -15q-19 0 -33 4q-26 8 -54.5 43t-28.5 68q0 17 9 30
q16 24 91 51q91 34 109 45q23 82 26 91q30 95 66 166q28 56 61 100q26 34 32 36q18 5 52 -10q38 -17 35 -41q-30 -42 -106 -168q-36 -66 -44 -105q-2 -8 -1 -12t5 -3q48 15 149 136q19 22 38 11q13 -8 13 -25q0 -11 -8 -22zM-39 -82l-68 -32q-50 -27 -46 -42q7 -25 37 -25
q15 0 31 10q37 23 46 89z" />
    <glyph glyph-name="k" unicode="k" horiz-adv-x="462" 
d="M536 142q-40 -51 -95 -102q-75 -70 -113 -73q-103 -8 -207 127q-46 -75 -68 -113q-2 -4 -10 -4q-21 0 -48 19q-30 20 -30 42q0 45 178 325q176 277 210 293q4 1 10 1q24 0 62 -22q43 -25 24 -46q-31 -35 -169 -246q65 34 100 34q8 0 17 -1q20 -3 36 -41t16 -78
q0 -32 -12 -50q-38 -56 -192 -87q5 -31 30 -56q30 -29 67 -23q27 5 78 56q12 12 77 84q17 20 37 2q9 -9 9 -20t-7 -21zM324 260q-1 8 -13 8q-27 0 -102 -36l-25 -39q144 46 140 67z" />
    <glyph glyph-name="l" unicode="l" horiz-adv-x="298" 
d="M443 572q0 -26 -29 -81q-32 -63 -79 -113q-80 -88 -156 -124q-50 -111 -50 -160q0 -28 34 -28q53 0 114 54q21 19 72 82q11 14 26 14q25 0 25 -25q0 -12 -9 -25q-132 -183 -260 -183q-22 0 -44 6.5t-49.5 46t-28.5 62.5q-3 63 62 197q64 130 145 235q88 114 143 123
q24 4 54 -24t30 -57zM371 538q-25 15 -139 -193q30 23 53 48q36 40 62.5 81t26.5 58q0 5 -3 6z" />
    <glyph glyph-name="m" unicode="m" horiz-adv-x="694" 
d="M769 144q-27 -40 -89 -97q-48 -45 -74 -61q-38 -24 -74 -21q-21 1 -55 37t-34 64q0 20 58 129q-108 -84 -203 -204q-5 -6 -27 -6q-21 0 -44 6q-33 8 -28 23q7 26 69 177q-71 -59 -180 -160q-19 -33 -21 -36q-8 -10 -21 -10q-23 0 -52.5 21.5t-30.5 31.5q-1 37 83 174
t117 150q8 4 42 -11.5t43 -33.5q7 -14 -7 -27q-7 -7 -60 -97q142 147 194 159q22 5 41.5 -22t19.5 -58q0 -14 -5 -25q-9 -19 -32 -69q26 31 113 107q96 83 120 86q25 3 42 -31q15 -29 15 -63q0 -22 -7 -30q-33 -38 -65 -91q-37 -59 -46 -94q-4 -13 -2 -18q0 -3 3 -3
q21 -3 80 56q44 44 71 79q11 14 25 14q27 0 27 -27q0 -10 -6 -19z" />
    <glyph glyph-name="n" unicode="n" horiz-adv-x="458" 
d="M532 144q-27 -40 -89 -97q-48 -45 -74 -61q-38 -24 -74 -21q-21 1 -55 37t-34 64q0 20 58 129q-135 -114 -199 -201q-7 -10 -20 -10q-22 0 -53 23q-28 20 -29 31q-1 37 76.5 164.5t110.5 141.5q9 3 42.5 -12t42.5 -33q8 -15 -6 -28q-8 -7 -58 -83q112 103 120 111
q80 69 104 72q25 3 42 -31q15 -29 15 -63q0 -22 -7 -30q-33 -38 -65 -91q-37 -59 -46 -94q-4 -13 -2 -18q0 -3 3 -3q21 -3 80 56q44 44 71 79q11 14 25 14q27 0 27 -27q0 -10 -6 -19z" />
    <glyph glyph-name="o" unicode="o" horiz-adv-x="410" 
d="M482 141q-74 -101 -151 -101q-24 0 -50 9q-78 -77 -146 -71q-29 2 -70 38.5t-47 69.5q-2 11 -2 24q0 70 52 142q40 55 99 90q54 32 86 27q28 -4 60 -28q34 16 61 4q33 -14 33 -60q0 -85 -80 -185q4 -1 9 -1q48 0 103 78q10 14 24 14q27 0 27 -28q0 -11 -8 -22zM316 265
q-25 0 -37 -53q-6 -25 3 -37q42 62 42 84q0 6 -8 6zM218 98q-21 30 -21 69q0 29 12 59q-20 -10 -44 -41q-50 -65 -50 -102q0 -24 26 -24q34 0 77 39z" />
    <glyph glyph-name="p" unicode="p" horiz-adv-x="410" 
d="M479 137q-36 -47 -63 -74q-43 -41 -80 -57q-45 -20 -110 -19q-17 -6 -35 -6q-59 0 -103 59q-123 -219 -134 -247q-7 -16 -23 -16q-21 0 -44.5 22.5t-20.5 39.5q10 62 126 279q118 222 160 247q6 3 14 3q20 0 44 -15.5t29 -30.5q70 57 95 52q33 -5 54 -41t18 -74
q-2 -30 -29 -87q-28 -62 -64 -109q67 29 124 111q8 12 21 12q29 0 29 -29q0 -10 -8 -20zM297 270q-1 1 -3 1q-3 0 -14 -10q-16 -15 -25 -21q-12 -10 -102 -84l-27 -46l2 -2q22 -24 30 -24q32 2 90 92q55 87 49 94z" />
    <glyph glyph-name="q" unicode="q" 
d="M485 143q-111 -149 -211 -160q19 -39 14 -91q-4 -53 -34 -97q-35 -51 -83 -51q-29 0 -56 24t-30 46q-7 38 58 184q-23 -14 -43 -12q-34 5 -64 44.5t-29 88.5q2 75 87 170t154 93q30 -2 56 -56q25 30 34 32q17 6 53.5 -10t33.5 -40q-1 -8 -36 -58q-96 -135 -96 -183
q0 -11 13 -11q36 0 136 120q13 15 26 15q24 0 24 -28q0 -11 -7 -20zM264 272q-2 20 -8 21q-27 4 -91 -101q-51 -84 -51 -116q0 -6 2 -6q16 -4 50 37q27 35 40 61q30 62 58 104zM222 -145q9 34 0 70q-51 -94 -51 -119q0 -6 3 -7q9 -4 25 13.5t23 42.5z" />
    <glyph glyph-name="r" unicode="r" horiz-adv-x="359" 
d="M346 47q-73 -75 -139 -69q-30 2 -62.5 37t-31.5 64q0 39 83 191q-11 -1 -32 -3q-2 -3 -44 -60q-22 -33 -71 -95q-8 -9 -19 -9q-27 0 -27 28q0 10 7 21q26 34 52 69q31 42 45 73q-20 28 -19 56q1 26 18 47q20 26 52 24q26 -2 40 -20t14 -41q0 -13 -4 -24q26 6 61 36
q11 10 23 10q23 0 40 -36.5t17 -68.5q0 -14 -4 -20q-113 -147 -113 -192q0 -20 18 -20q16 0 62 45.5t76 84.5q11 15 27 15q26 0 26 -25q0 -23 -95 -118z" />
    <glyph glyph-name="s" unicode="s" horiz-adv-x="316" 
d="M392 150q-11 -20 -56 -69q-57 -62 -108 -85q-31 -14 -71 -14q-60 0 -97 27q-34 24 -49 64q-6 -2 -12 -2q-31 0 -31 25q0 10 9 19q21 21 59.5 72t54.5 78q24 41 37 61q29 44 44 52q7 4 13 4q16 0 38 -26q2 -2 22 -17q13 -11 13 -22q0 -6 -4 -14q-12 -26 -12 -66
q0 -34 10.5 -57.5t26.5 -74.5q21 13 69 75q10 12 23 12q25 0 25 -26q0 -8 -4 -16zM157 140q-12 51 -11 95q-54 -71 -89 -114q16 -60 58 -60q18 0 31 15t13 41q0 11 -2 23z" />
    <glyph glyph-name="t" unicode="t" horiz-adv-x="291" 
d="M364 146q-50 -83 -112 -122q-67 -42 -127 -42q-32 0 -58 13q-18 8 -42.5 44t-23.5 58q3 37 101 205h-15q-13 -1 -28.5 18t-15.5 36q0 24 31 28q24 4 83 8q63 101 80 109q6 4 15 4q23 0 48 -22t26 -41q1 -8 -21 -44q30 -1 36 -3q16 -6 16 -27q0 -47 -30 -69
q-15 -12 -29 -8q-20 6 -52 9l-91 -153q-37 -66 -32 -84q3 -12 26 -12q43 0 91 37q33 25 78 87q14 20 29 20q23 0 23 -28q0 -11 -6 -21z" />
    <glyph glyph-name="u" unicode="u" horiz-adv-x="453" 
d="M525 143q-48 -76 -114 -119q-53 -35 -112 -35q-21 0 -38 6q-27 9 -50 38q-58 -44 -111 -44q-19 0 -35 6q-22 8 -42 32q-25 30 -24 67q1 46 76 157q71 105 99 119q7 3 15 3q24 0 49.5 -21.5t26.5 -40.5q1 -7 -7 -20q-41 -59 -102 -148q-36 -53 -36 -71q0 -12 10 -12
q12 0 55 41q20 19 90 133q40 64 43 69q32 50 48 64q8 7 18 7q23 0 49.5 -22.5t27.5 -40.5q1 -7 -7 -20q-41 -58 -102 -148q-39 -59 -33 -82q3 -10 14 -10q20 0 65 35q36 28 80 86q15 19 30 19q23 0 23 -27q0 -11 -6 -21z" />
    <glyph glyph-name="v" unicode="v" horiz-adv-x="436" 
d="M515 154q-9 -19 -34 -46q-32 -35 -60.5 -48.5t-56.5 -13.5q-32 0 -60 16q-65 -78 -115 -94q-6 -2 -13 -2q-24 0 -59.5 14.5t-43.5 25.5q-39 51 -39 139q0 18 1 38q6 65 31 114q22 43 50 59q5 3 13 3q40 0 70 -31q12 -13 5 -23q-26 -34 -46 -117q-11 -50 -11 -105
q0 -49 10 -51q26 -7 96 82q-25 43 -25 95q0 33 11 61q41 108 121 118q12 2 36.5 -25t25.5 -46q1 -40 -28 -107q-24 -55 -55 -100q18 -9 37 -8q22 1 46 24q7 7 45 51q12 14 25 14t21 -13t2 -24zM348 336q-9 6 -30.5 -26.5t-28.5 -68.5q-7 -35 3 -68q19 36 40 100q20 61 16 63
z" />
    <glyph glyph-name="w" unicode="w" horiz-adv-x="675" 
d="M754 154q-9 -19 -34 -46q-32 -35 -60.5 -48.5t-56.5 -13.5q-32 0 -60 16q-63 -75 -119 -80q-124 -12 -149 103q-14 -20 -31 -35q-54 -50 -119 -50q-25 0 -47 7.5t-43.5 39t-23.5 62.5q-3 45 65 152q64 98 91 113q12 6 29 6q27 0 51.5 -12t25.5 -27q0 -7 -7 -20
q-39 -68 -96 -150q-44 -62 -44 -98q0 -22 27 -13q43 13 80 66q23 33 52 87q36 66 43 76q11 19 47 19q43 0 59 -18q13 -13 5 -22q-23 -31 -43 -99q-18 -58 -18 -94q0 -39 18 -43q26 -7 96 82q-25 43 -25 95q0 33 11 61q41 108 121 118q12 2 36.5 -25t25.5 -46q1 -40 -28 -107
q-24 -55 -55 -100q18 -9 37 -8q22 1 46 24q7 7 45 51q12 14 25 14t21 -13t2 -24zM587 336q-9 6 -30.5 -26.5t-28.5 -68.5q-7 -35 3 -68q19 36 40 100q20 61 16 63z" />
    <glyph glyph-name="x" unicode="x" horiz-adv-x="419" 
d="M491 140q-32 -43 -88 -91q-69 -58 -107 -58t-51 41q-3 10 -16 53q-92 -89 -108 -107q-27 -28 -67 -28q-25 0 -26 15q-2 18 177 198q-28 102 -33 102q-5 -1 -52 -62q-52 -69 -58.5 -75.5t-17.5 -6.5q-30 0 -30 26q0 12 11 24q58 81 134 174q10 7 39.5 14t48.5 7q9 0 12 -2
q17 -10 39 -110q48 46 89 108q32 46 35 46q30 -8 30 -42q0 -6 -2 -10q-38 -95 -133 -187q18 -85 33 -84q26 1 99 92q10 13 24 13q26 0 26 -26q0 -12 -8 -24z" />
    <glyph glyph-name="y" unicode="y" horiz-adv-x="444" 
d="M515 140q-97 -124 -212 -170q-4 -44 -19.5 -92.5t-32.5 -70.5q-25 -30 -69 -47q-38 -15 -77 -15q-19 0 -33 4q-26 8 -55 43t-29 68q0 17 9 30q17 24 91 51q91 34 110 45q2 10 10 40q-49 -36 -109 -36q-19 0 -32 5q-22 8 -42 32q-25 30 -24 67q1 47 70 157q65 105 92 119
q7 3 15 3q24 0 49.5 -21.5t26.5 -40.5q1 -7 -7 -20q-41 -59 -102 -148q-25 -37 -25 -65q0 -17 17 -17q20 0 51.5 19t51.5 48q23 64 49 115q28 56 55 90q19 23 26 25q17 6 53.5 -10t33.5 -40q-24 -32 -94 -148q-35 -66 -43 -105q-2 -8 -1 -12q0 -4 4 -3q48 15 149 136
q19 22 38 11q13 -8 13 -25q0 -11 -8 -22zM191 -82q-34 -16 -69 -32q-50 -27 -45 -42q7 -25 37 -25q15 0 30 10q37 23 47 89z" />
    <glyph glyph-name="z" unicode="z" horiz-adv-x="402" 
d="M478 144q-78 -101 -197 -171q-4 -87 -48 -150q-54 -78 -151 -78q-19 0 -35 4q-33 8 -58.5 44t-25.5 69q0 13 5 22q13 25 95 59q60 23 119 46q3 15 -9 29q-32 -20 -56 -20q-21 0 -37.5 11t-17.5 27q-1 52 78 52q12 0 22 -2q17 20 57 76q40 64 40 91q0 10 -10 10
q-21 0 -77 -41q-74 -54 -141 -133q-11 -14 -24 -14t-22.5 16t-2.5 26q26 37 122 137q120 124 186 126q26 1 54.5 -33t29.5 -62q2 -43 -50 -115q-40 -56 -88 -100l-8 -7q25 -14 40 -34q45 26 93 71q25 24 75 80q10 11 22 11q16 0 23 -17q6 -17 -3 -30zM168 -81l-4 -2
q-32 -14 -65 -29q-47 -24 -47 -40q0 -12 10.5 -21.5t25.5 -8.5q56 5 80 101z" />
    <glyph glyph-name="braceleft" unicode="{" horiz-adv-x="483" 
d="M432 -66q-114 0 -172 58q-30 30 -37 66q-3 16 -3 77v73q0 53 -5 71q-9 38 -45 60q-29 17 -107 31v42q87 13 119 41q38 34 38 121v73q0 64 5 85q10 39 51 73q51 42 156 44v-26q-90 -15 -118 -46t-28 -119v-73q0 -57 -4 -76q-9 -41 -45 -68q-44 -33 -147 -50
q110 -15 148 -47q48 -40 48 -145v-72q0 -52 5 -71q10 -38 49 -65q36 -25 92 -31v-26z" />
    <glyph glyph-name="bar" unicode="|" horiz-adv-x="266" 
d="M165 -54h-55v894h55v-894z" />
    <glyph glyph-name="braceright" unicode="}" horiz-adv-x="565" 
d="M497 371q-43 -8 -60 -12q-27 -7 -47 -19q-36 -22 -45 -60q-5 -18 -5 -71v-73q0 -61 -3 -77q-7 -36 -37 -66q-58 -58 -172 -58v26q56 6 93.5 32t47.5 64q5 19 5 71v72q0 105 48 145q38 32 148 47q-103 17 -147 50q-36 27 -45 68q-4 19 -4 76v73q0 88 -28 119t-118 46v26
q105 -2 156 -44q41 -34 51 -73q5 -21 5 -85v-73q0 -87 38 -121q31 -28 119 -41v-42z" />
    <glyph glyph-name="asciitilde" unicode="~" horiz-adv-x="468" 
d="M390 833q-22 -87 -66 -103q-15 -5 -28 -5q-21 0 -49 16q-41 22 -55 27q-26 12 -49 -4q-12 -8 -23 -39h-28q20 88 73 103q12 3 23 3q21 0 52 -20q36 -22 62 -27q46 -8 62 49h26z" />
    <glyph glyph-name="Adieresis" unicode="&#xc4;" horiz-adv-x="861" 
d="M864 718q-56 -111 -136 -377q-37 -123 -37 -253q0 -76 22 -88q16 -8 33 -8q46 0 95 59q7 8 14 -8q9 -17 -11 -44q-24 -33 -67 -57t-80 -24q-67 0 -99 70q-24 53 -24 128q0 25 3 52q-48 24 -81 24q-39 0 -128 -13q-81 -12 -126 -10q-110 -137 -128 -166q-23 -35 -38 -35
q-7 0 -10 6q-17 29 -17 50q0 9 3 17q6 23 98 164q-18 13 -27 28t-13 54q-3 37 1 57q5 27 18 27q4 0 8 -4q23 -20 89 -48q41 56 119 156q114 139 233 256q123 119 160 125q23 4 42 -22l18 -34q23 -34 60 -55q16 -9 6 -27zM661 584q-118 -75 -244 -205q-19 -19 -63 -72
q98 13 161 12q53 -1 79 -13q24 109 67 278zM994 965q0 -27 -20 -50t-46 -23q-21 0 -38 9q-20 11 -20 30q0 31 22 52.5t53 21.5q49 0 49 -40zM821 965q0 -27 -20 -50t-46 -23q-21 0 -38 9q-20 11 -20 30q0 31 22 52.5t53 21.5q49 0 49 -40z" />
    <glyph glyph-name="Aring" unicode="&#xc5;" horiz-adv-x="862" 
d="M864 718q-56 -111 -136 -377q-37 -123 -37 -253q0 -76 22 -88q16 -8 33 -8q46 0 95 59q7 8 14 -8q9 -17 -11 -44q-24 -33 -67 -57t-80 -24q-67 0 -99 70q-24 53 -24 128q0 25 3 52q-48 24 -81 24q-39 0 -128 -13q-81 -12 -126 -10q-110 -137 -128 -166q-23 -35 -38 -35
q-7 0 -10 6q-17 29 -17 50q0 9 3 17q6 23 98 164q-18 13 -27 28t-13 54q-3 37 1 57q5 27 18 27q4 0 8 -4q23 -20 89 -48q41 56 119 156q114 139 233 256q123 119 160 125q23 4 42 -22l18 -34q23 -34 60 -55q16 -9 6 -27zM661 584q-118 -75 -244 -205q-19 -19 -63 -72
q98 13 161 12q53 -1 79 -13q24 109 67 278zM930 989q0 -43 -20 -73q-24 -35 -65 -35q-28 0 -50.5 21.5t-22.5 49.5q0 27 29 64.5t55 37.5q5 0 44 -22q21 -12 24 -15q6 -7 6 -28zM876 975q0 12 -9 33q-46 -30 -46 -65q0 -8 5 -28q50 30 50 60z" />
    <glyph glyph-name="Ccedilla" unicode="&#xc7;" horiz-adv-x="653" 
d="M699 696q2 -34 -38 -123t-64 -100q-2 -1 -5 -1q-18 0 -69 30q-54 31 -48 47q29 48 69 116q20 34 20 42q0 6 -9 6q-32 0 -107 -68q-86 -77 -157 -185q-33 -52 -58 -114q-32 -78 -32 -134q0 -61 38 -87q26 -17 70 -17q64 0 146 33q78 30 127 71q4 3 9 3q8 0 23.5 -14.5
t7.5 -24.5q-60 -66 -135 -115q-90 -58 -173 -67q-44 -5 -96 10l-40 -62q83 -10 83 -60q0 -27 -24 -49.5t-50 -24.5q-40 -2 -73 15q-36 18 -33 42q3 25 51 25q25 0 25 -13q0 -6 -10.5 -10t-19.5 -4q12 -31 55 -24q30 6 30 36q0 18 -27 33q-21 11 -46 15q-8 1 -8 7q0 4 55 85
q-53 22 -95.5 55.5t-54.5 63.5q-5 15 -5 42q0 59 25 140q30 95 84 183q173 279 375 316q9 2 20 2q55 0 108 -40.5t56 -80.5z" />
    <glyph glyph-name="Eacute" unicode="&#xc9;" horiz-adv-x="701" 
d="M820 742q9 -2 9 -33q0 -33 -8.5 -77.5t-14.5 -44.5q-7 0 -94.5 10.5t-168.5 10.5q-35 0 -70 -1l-21 -2q-53 -80 -122 -198q143 9 215 9q40 0 46.5 -4t6.5 -24q0 -34 -12 -46.5t-152 -40.5q-135 -26 -180 -29q-56 -101 -89 -170q53 -9 196 12q55 8 97 8q59 0 94 -16
q19 -8 32.5 -36t13.5 -47q-1 -21 -13 -16q-40 19 -97 19t-121 -19q-137 -41 -223 -41q-14 0 -20 2q-26 8 -55 61q-27 50 -26 70q2 35 75 191q69 146 151 297q-106 -14 -123 -12t-35 66q-10 36 -20 73q-1 3 -1 7q0 19 22 23q103 20 265 26q29 42 43 42q28 0 69 -41
q222 -1 331 -29zM669 951q0 -12 -34 -20q-23 -5 -78.5 -47.5t-60.5 -42.5q-11 0 -11 15q0 34 29 60t59 52q44 37 62 37q8 0 21 -21.5t13 -32.5z" />
    <glyph glyph-name="Ntilde" unicode="&#xd1;" horiz-adv-x="794" 
d="M1167 787q1 -3 1 -5q0 -7 -13 -13q-9 -3 -18 -7q-43 -23 -123 -106q-93 -95 -180 -216q-62 -87 -149 -249q-79 -146 -88 -156q-18 -19 -79 -36.5t-100 -17.5q-19 0 -24.5 6t-5.5 55q0 72 11 204q10 120 17 150q-1 3 -3 6q-3 0 -11 -6q-37 -31 -168 -215
q-109 -154 -163 -240q-10 -16 -24 -1q-26 29 -26 104q0 18 2 36.5t88 158.5q77 126 150 234q209 309 253 324q14 5 55.5 -21t44.5 -46q2 -18 -45 -266q-43 -223 -53 -267q-3 -13 -2 -17q0 -5 4 -4q6 3 15 17q44 75 133 201q99 142 163.5 217t136.5 139q66 59 105 79
q4 2 10 2q19 0 49 -16.5t37 -27.5zM972 935q-4 -33 -41.5 -56.5t-74.5 -19.5q-17 1 -51 18t-55 19q-15 2 -56 -19.5t-43 -21.5q-14 1 -12 12q3 33 50.5 64.5t82.5 27.5q19 -2 50 -17.5t46 -17.5q16 -1 54 12t41 13q10 -3 9 -14z" />
    <glyph glyph-name="Odieresis" unicode="&#xd6;" horiz-adv-x="689" 
d="M760 662q1 -5 1 -14q0 -57 -31 -164q-38 -125 -93 -215q-153 -250 -325 -296q-16 -4 -37 -4q-61 0 -140 34q-72 31 -85 53q-25 40 -25 122q0 193 114 371q82 129 201 213q99 71 137 63q21 -5 46 -23t34 -35q40 19 67 21q31 2 80 -43t56 -83zM634 683q-22 -7 -42 -17
q-47 -24 -78 -59q-24 -27 -41 -84q-13 -46 -13 -69q0 -17 -27 -17q-19 0 -22 15q-4 23 -4 59q0 94 34 158q-109 -96 -176 -201q-81 -128 -81 -287q0 -79 26 -92q7 -3 16 -3q47 0 131 72.5t148.5 168t103.5 218.5q32 103 25 138zM760 931q0 -27 -19.5 -50t-46.5 -23
q-21 0 -37 9q-21 11 -21 30q0 31 22.5 52.5t52.5 21.5q49 0 49 -40zM587 931q0 -27 -19.5 -50t-46.5 -23q-21 0 -37 9q-21 11 -21 30q0 31 22.5 52.5t52.5 21.5q49 0 49 -40z" />
    <glyph glyph-name="Udieresis" unicode="&#xdc;" horiz-adv-x="601" 
d="M911 804q0 -21 -31 -38q-84 -45 -262 -392q-44 -92 -89 -184q-53 -103 -109 -150q-73 -61 -173 -58q-73 2 -127 34.5t-71 86.5q-12 36 -12 101q0 156 52 288q42 106 107 203t110 121q11 6 26 6q39 0 78.5 -32t39.5 -62q0 -16 -14 -25q-92 -65 -180 -278
q-56 -134 -56 -251q0 -107 54 -107q48 0 127 114q45 64 160 264q186 324 314 369q15 6 32 6q24 -1 24 -16zM767 941q0 -28 -19.5 -50.5t-46.5 -22.5q-21 0 -38 9q-20 11 -20 30q0 30 22.5 52t52.5 22q49 0 49 -40zM594 941q0 -28 -19.5 -50.5t-46.5 -22.5q-21 0 -38 9
q-20 11 -20 30q0 30 22.5 52t52.5 22q49 0 49 -40z" />
    <glyph glyph-name="aacute" unicode="&#xe1;" 
d="M485 143q-44 -59 -95 -102q-71 -59 -129 -59q-59 0 -75 48q-46 -49 -86 -44q-34 5 -64 44.5t-29 88.5q2 75 87 170t154 93q30 -2 56 -56q25 30 34 32q17 6 53.5 -10t33.5 -40q-1 -8 -36 -58q-96 -135 -96 -183q0 -11 13 -11q36 0 136 120q13 15 26 15q24 0 24 -28
q0 -11 -7 -20zM264 272q-2 20 -8 21q-27 4 -91 -101q-51 -84 -51 -116q0 -6 2 -6q16 -4 50 37q27 35 40 61q30 62 58 104zM485 527q0 -12 -34 -20q-23 -5 -78.5 -47.5t-60.5 -42.5q-11 0 -11 15q0 34 29 59.5t58 52.5q45 37 63 37q8 0 21 -22t13 -32z" />
    <glyph glyph-name="agrave" unicode="&#xe0;" 
d="M485 143q-44 -59 -95 -102q-71 -59 -129 -59q-59 0 -75 48q-46 -49 -86 -44q-34 5 -64 44.5t-29 88.5q2 75 87 170t154 93q30 -2 56 -56q25 30 34 32q17 6 53.5 -10t33.5 -40q-1 -8 -36 -58q-96 -135 -96 -183q0 -11 13 -11q36 0 136 120q13 15 26 15q24 0 24 -28
q0 -11 -7 -20zM264 272q-2 20 -8 21q-27 4 -91 -101q-51 -84 -51 -116q0 -6 2 -6q16 -4 50 37q27 35 40 61q30 62 58 104zM350 416q0 -6 -6 -14t-12 -8q-23 0 -89 41q-69 43 -69 64q0 13 9.5 42t18.5 29q8 0 14 -12q28 -61 103 -114q31 -21 31 -28z" />
    <glyph glyph-name="acircumflex" unicode="&#xe2;" 
d="M485 143q-44 -59 -95 -102q-71 -59 -129 -59q-59 0 -75 48q-46 -49 -86 -44q-34 5 -64 44.5t-29 88.5q2 75 87 170t154 93q30 -2 56 -56q25 30 34 32q17 6 53.5 -10t33.5 -40q-1 -8 -36 -58q-96 -135 -96 -183q0 -11 13 -11q36 0 136 120q13 15 26 15q24 0 24 -28
q0 -11 -7 -20zM264 272q-2 20 -8 21q-27 4 -91 -101q-51 -84 -51 -116q0 -6 2 -6q16 -4 50 37q27 35 40 61q30 62 58 104zM460 473q0 -9 -12 -23t-19 -14t-32 39t-40 39q-11 0 -129 -83q-8 0 -8 13q0 21 18 47q8 12 70.5 52t79.5 40q15 0 43.5 -47t28.5 -63z" />
    <glyph glyph-name="adieresis" unicode="&#xe4;" horiz-adv-x="413" 
d="M485 143q-44 -59 -95 -102q-71 -59 -129 -59q-59 0 -75 48q-46 -49 -86 -44q-34 5 -64 44.5t-29 88.5q2 75 87 170t154 93q30 -2 56 -56q25 30 34 32q17 6 53.5 -10t33.5 -40q-1 -8 -36 -58q-96 -135 -96 -183q0 -11 13 -11q36 0 136 120q13 15 26 15q24 0 24 -28
q0 -11 -7 -20zM264 272q-2 20 -8 21q-27 4 -91 -101q-51 -84 -51 -116q0 -6 2 -6q16 -4 50 37q27 35 40 61q30 62 58 104zM498 518q0 -27 -19.5 -50t-46.5 -23q-21 0 -37 9q-21 11 -21 30q0 31 22.5 52.5t52.5 21.5q49 0 49 -40zM325 518q0 -27 -19.5 -50t-46.5 -23
q-21 0 -37 9q-21 11 -21 30q0 31 22.5 52.5t52.5 21.5q49 0 49 -40z" />
    <glyph glyph-name="atilde" unicode="&#xe3;" horiz-adv-x="413" 
d="M485 143q-44 -59 -95 -102q-71 -59 -129 -59q-59 0 -75 48q-46 -49 -86 -44q-34 5 -64 44.5t-29 88.5q2 75 87 170t154 93q30 -2 56 -56q25 30 34 32q17 6 53.5 -10t33.5 -40q-1 -8 -36 -58q-96 -135 -96 -183q0 -11 13 -11q36 0 136 120q13 15 26 15q24 0 24 -28
q0 -11 -7 -20zM264 272q-2 20 -8 21q-27 4 -91 -101q-51 -84 -51 -116q0 -6 2 -6q16 -4 50 37q27 35 40 61q30 62 58 104zM504 511q-3 -33 -41 -56.5t-74 -19.5q-17 2 -51.5 18.5t-55.5 19.5q-15 1 -55.5 -20.5t-43.5 -21.5q-13 1 -12 13q4 32 51 63.5t83 27.5
q18 -2 49 -17.5t47 -17.5q16 -1 54 12t41 13q10 -3 8 -14z" />
    <glyph glyph-name="aring" unicode="&#xe5;" horiz-adv-x="414" 
d="M485 143q-44 -59 -95 -102q-71 -59 -129 -59q-59 0 -75 48q-46 -49 -86 -44q-34 5 -64 44.5t-29 88.5q2 75 87 170t154 93q30 -2 56 -56q25 30 34 32q17 6 53.5 -10t33.5 -40q-1 -8 -36 -58q-96 -135 -96 -183q0 -11 13 -11q36 0 136 120q13 15 26 15q24 0 24 -28
q0 -11 -7 -20zM264 272q-2 20 -8 21q-27 4 -91 -101q-51 -84 -51 -116q0 -6 2 -6q16 -4 50 37q27 35 40 61q30 62 58 104zM442 536q0 -43 -21 -73q-23 -35 -64 -35q-28 0 -50.5 21.5t-22.5 49.5q0 27 29 64.5t55 37.5q5 0 44 -22q21 -12 24 -15q6 -7 6 -28zM388 522
q0 12 -9 33q-46 -31 -46 -65q0 -8 5 -28q50 30 50 60z" />
    <glyph glyph-name="ccedilla" unicode="&#xe7;" horiz-adv-x="315" 
d="M391 148q-23 -37 -71 -83q-80 -77 -164 -77q-8 0 -17 2l-21 -28q83 -10 83 -60q0 -27 -24 -49.5t-50 -24.5q-40 -2 -73 15q-36 18 -33 42q3 25 51 25q25 0 25 -13q0 -6 -10.5 -10t-19.5 -4q12 -31 55 -24q30 6 30 36q0 18 -27 33q-21 11 -46 15q-8 1 -8 7q0 4 36 48
q-72 26 -89 62q-10 20 -10 51q0 73 47 145q41 64 95 98t100 28q22 -4 55 -31q36 -30 34 -56q-2 -29 -31 -75q-10 -16 -25 -16q-17 0 -35.5 18t-20.5 28q-1 11 9 30t8 20q-2 2 -4 2q-14 0 -40.5 -29t-53.5 -76t-27 -89q0 -20 6 -33q10 -20 47 -20q56 0 108 48q25 23 67 76
q10 13 22 13q26 0 26 -28q0 -8 -4 -16z" />
    <glyph glyph-name="eacute" unicode="&#xe9;" horiz-adv-x="330" 
d="M405 148q-23 -37 -71 -83q-80 -77 -164 -77q-33 0 -79.5 23.5t-58.5 48.5q-10 20 -10 51q0 73 47 145q41 64 95 98t100 28q22 -4 55 -31q36 -30 34 -56q-4 -52 -46.5 -102t-78.5 -53q-25 -1 -79 30q-15 -36 -15 -66q0 -20 5 -29q12 -20 48 -20q55 0 107 48q25 23 67 76
q10 13 22 13q26 0 26 -28q0 -8 -4 -16zM258 300q-7 5 -31 -17t-48 -58q22 -12 30 -10q15 3 33 33t18 46q0 5 -2 6zM456 532q0 -12 -34 -20q-23 -5 -78.5 -47.5t-60.5 -42.5q-11 0 -11 15q0 34 29.5 59.5t58.5 52.5q44 37 62 37q9 0 21.5 -22t12.5 -32z" />
    <glyph glyph-name="egrave" unicode="&#xe8;" horiz-adv-x="330" 
d="M405 148q-23 -37 -71 -83q-80 -77 -164 -77q-33 0 -79.5 23.5t-58.5 48.5q-10 20 -10 51q0 73 47 145q41 64 95 98t100 28q22 -4 55 -31q36 -30 34 -56q-4 -52 -46.5 -102t-78.5 -53q-25 -1 -79 30q-15 -36 -15 -66q0 -20 5 -29q12 -20 48 -20q55 0 107 48q25 23 67 76
q10 13 22 13q26 0 26 -28q0 -8 -4 -16zM258 300q-7 5 -31 -17t-48 -58q22 -12 30 -10q15 3 33 33t18 46q0 5 -2 6zM308 427q0 -7 -6 -14.5t-12 -7.5q-23 0 -89 41q-69 43 -69 64q0 13 9 40q10 31 19 31q8 0 14 -12q28 -62 103 -114q31 -22 31 -28z" />
    <glyph glyph-name="ecircumflex" unicode="&#xea;" horiz-adv-x="329" 
d="M405 148q-23 -37 -71 -83q-80 -77 -164 -77q-33 0 -79.5 23.5t-58.5 48.5q-10 20 -10 51q0 73 47 145q41 64 95 98t100 28q22 -4 55 -31q36 -30 34 -56q-4 -52 -46.5 -102t-78.5 -53q-25 -1 -79 30q-15 -36 -15 -66q0 -20 5 -29q12 -20 48 -20q55 0 107 48q25 23 67 76
q10 13 22 13q26 0 26 -28q0 -8 -4 -16zM258 300q-7 5 -31 -17t-48 -58q22 -12 30 -10q15 3 33 33t18 46q0 5 -2 6zM398 462q0 -9 -12 -23t-19 -14t-32 39t-40 39q-11 0 -129 -83q-8 0 -8 13q0 21 18 47q8 12 70.5 52t79.5 40q15 0 43.5 -47t28.5 -63z" />
    <glyph glyph-name="edieresis" unicode="&#xeb;" horiz-adv-x="330" 
d="M405 148q-23 -37 -71 -83q-80 -77 -164 -77q-33 0 -79.5 23.5t-58.5 48.5q-10 20 -10 51q0 73 47 145q41 64 95 98t100 28q22 -4 55 -31q36 -30 34 -56q-4 -52 -46.5 -102t-78.5 -53q-25 -1 -79 30q-15 -36 -15 -66q0 -20 5 -29q12 -20 48 -20q55 0 107 48q25 23 67 76
q10 13 22 13q26 0 26 -28q0 -8 -4 -16zM258 300q-7 5 -31 -17t-48 -58q22 -12 30 -10q15 3 33 33t18 46q0 5 -2 6zM431 503q0 -27 -19.5 -50t-46.5 -23q-21 0 -37 9q-21 11 -21 30q0 31 22.5 52.5t52.5 21.5q49 0 49 -40zM258 503q0 -27 -19.5 -50t-46.5 -23q-21 0 -37 9
q-21 11 -21 30q0 31 22.5 52.5t52.5 21.5q49 0 49 -40z" />
    <glyph glyph-name="iacute" unicode="&#xed;" horiz-adv-x="281" 
d="M355 146q-50 -83 -111.5 -121.5t-125.5 -38.5q-29 0 -54 9q-21 7 -43 38.5t-23 62.5q-2 42 73 158q71 109 97 123q7 4 15 4q23 0 48 -22.5t26 -40.5q1 -7 -7 -21q-29 -41 -93 -139q-44 -71 -38 -95q4 -13 26 -13q38 0 86 38q33 26 78 88q14 19 29 19q23 0 23 -27
q0 -11 -6 -22zM403 534q0 -12 -34 -20q-23 -6 -79 -48t-60 -42q-11 0 -11 15q0 33 29 59t58 53q44 37 63 37q8 0 21 -22t13 -32z" />
    <glyph glyph-name="igrave" unicode="&#xec;" horiz-adv-x="282" 
d="M355 146q-50 -83 -111.5 -121.5t-125.5 -38.5q-29 0 -54 9q-21 7 -43 38.5t-23 62.5q-2 42 73 158q71 109 97 123q7 4 15 4q23 0 48 -22.5t26 -40.5q1 -7 -7 -21q-29 -41 -93 -139q-44 -71 -38 -95q4 -13 26 -13q38 0 86 38q33 26 78 88q14 19 29 19q23 0 23 -27
q0 -11 -6 -22zM266 426q0 -7 -5.5 -14.5t-12.5 -7.5q-22 0 -88 41q-70 43 -70 64q0 12 10 41.5t18 29.5q9 0 14 -12q29 -62 103 -114q31 -22 31 -28z" />
    <glyph glyph-name="icircumflex" unicode="&#xee;" horiz-adv-x="282" 
d="M355 146q-50 -83 -111.5 -121.5t-125.5 -38.5q-29 0 -54 9q-21 7 -43 38.5t-23 62.5q-2 42 73 158q71 109 97 123q7 4 15 4q23 0 48 -22.5t26 -40.5q1 -7 -7 -21q-29 -41 -93 -139q-44 -71 -38 -95q4 -13 26 -13q38 0 86 38q33 26 78 88q14 19 29 19q23 0 23 -27
q0 -11 -6 -22zM356 446q0 -9 -12 -23t-19 -14t-32 39t-40 39q-11 0 -129 -83q-8 0 -8 13q0 21 18 47q8 12 70.5 52t79.5 40q15 0 43.5 -47t28.5 -63z" />
    <glyph glyph-name="idieresis" unicode="&#xef;" horiz-adv-x="282" 
d="M355 146q-50 -83 -111.5 -121.5t-125.5 -38.5q-29 0 -54 9q-21 7 -43 38.5t-23 62.5q-2 42 73 158q71 109 97 123q7 4 15 4q23 0 48 -22.5t26 -40.5q1 -7 -7 -21q-29 -41 -93 -139q-44 -71 -38 -95q4 -13 26 -13q38 0 86 38q33 26 78 88q14 19 29 19q23 0 23 -27
q0 -11 -6 -22zM388 496q0 -27 -20 -50t-46 -23q-21 0 -38 9q-20 11 -20 30q0 31 22 52.5t53 21.5q49 0 49 -40zM215 496q0 -27 -20 -50t-46 -23q-21 0 -38 9q-20 11 -20 30q0 31 22 52.5t53 21.5q49 0 49 -40z" />
    <glyph glyph-name="ntilde" unicode="&#xf1;" horiz-adv-x="458" 
d="M532 144q-27 -40 -89 -97q-48 -45 -74 -61q-38 -24 -74 -21q-21 1 -55 37t-34 64q0 20 58 129q-135 -114 -199 -201q-7 -10 -20 -10q-22 0 -53 23q-28 20 -29 31q-1 37 76.5 164.5t110.5 141.5q9 3 42.5 -12t42.5 -33q8 -15 -6 -28q-8 -7 -58 -83q112 103 120 111
q80 69 104 72q25 3 42 -31q15 -29 15 -63q0 -22 -7 -30q-33 -38 -65 -91q-37 -59 -46 -94q-4 -13 -2 -18q0 -3 3 -3q21 -3 80 56q44 44 71 79q11 14 25 14q27 0 27 -27q0 -10 -6 -19zM482 500q-4 -33 -41.5 -56.5t-74.5 -19.5q-17 2 -51 18.5t-56 19.5q-14 1 -55 -20.5
t-43 -21.5q-14 1 -12 13q3 32 50.5 63.5t82.5 27.5q19 -2 50 -17.5t46 -17.5q16 -1 54 12t41 13q10 -3 9 -14z" />
    <glyph glyph-name="oacute" unicode="&#xf3;" horiz-adv-x="399" 
d="M477 141q-74 -101 -151 -101q-24 0 -50 9q-78 -77 -146 -71q-29 2 -70 38.5t-47 69.5q-2 11 -2 24q0 70 52 142q40 55 99 90q54 32 86 27q28 -4 60 -28q34 16 61 4q33 -14 33 -60q0 -85 -80 -185q4 -1 9 -1q48 0 103 78q10 14 24 14q27 0 27 -28q0 -11 -8 -22zM311 265
q-25 0 -37 -53q-6 -25 3 -37q42 62 42 84q0 6 -8 6zM213 98q-21 30 -21 69q0 29 12 59q-20 -10 -44 -41q-50 -65 -50 -102q0 -24 26 -24q34 0 77 39zM463 525q0 -12 -34 -20q-23 -5 -78.5 -47.5t-60.5 -42.5q-11 0 -11 15q0 34 29 60t59 52q44 37 62 37q8 0 21 -21.5
t13 -32.5z" />
    <glyph glyph-name="ograve" unicode="&#xf2;" horiz-adv-x="402" 
d="M481 141q-74 -101 -151 -101q-24 0 -50 9q-78 -77 -146 -71q-29 2 -70 38.5t-47 69.5q-2 11 -2 24q0 70 52 142q40 55 99 90q54 32 86 27q28 -4 60 -28q34 16 61 4q33 -14 33 -60q0 -85 -80 -185q4 -1 9 -1q48 0 103 78q10 14 24 14q27 0 27 -28q0 -11 -8 -22zM315 265
q-25 0 -37 -53q-6 -25 3 -37q42 62 42 84q0 6 -8 6zM217 98q-21 30 -21 69q0 29 12 59q-20 -10 -44 -41q-50 -65 -50 -102q0 -24 26 -24q34 0 77 39zM344 414q0 -7 -6 -14.5t-12 -7.5q-23 0 -89 41q-69 43 -69 64q0 13 9.5 42t18.5 29q8 0 14 -12q28 -61 103 -114
q31 -21 31 -28z" />
    <glyph glyph-name="ocircumflex" unicode="&#xf4;" horiz-adv-x="400" 
d="M479 141q-74 -101 -151 -101q-24 0 -50 9q-78 -77 -146 -71q-29 2 -70 38.5t-47 69.5q-2 11 -2 24q0 70 52 142q40 55 99 90q54 32 86 27q28 -4 60 -28q34 16 61 4q33 -14 33 -60q0 -85 -80 -185q4 -1 9 -1q48 0 103 78q10 14 24 14q27 0 27 -28q0 -11 -8 -22zM313 265
q-25 0 -37 -53q-6 -25 3 -37q42 62 42 84q0 6 -8 6zM215 98q-21 30 -21 69q0 29 12 59q-20 -10 -44 -41q-50 -65 -50 -102q0 -24 26 -24q34 0 77 39zM421 454q0 -9 -12 -23t-19 -14t-32 39t-40 39q-11 0 -129 -83q-8 0 -8 13q0 21 18 47q8 12 70.5 52t79.5 40
q15 0 43.5 -46.5t28.5 -63.5z" />
    <glyph glyph-name="odieresis" unicode="&#xf6;" horiz-adv-x="402" 
d="M480 141q-74 -101 -151 -101q-24 0 -50 9q-78 -77 -146 -71q-29 2 -70 38.5t-47 69.5q-2 11 -2 24q0 70 52 142q40 55 99 90q54 32 86 27q28 -4 60 -28q34 16 61 4q33 -14 33 -60q0 -85 -80 -185q4 -1 9 -1q48 0 103 78q10 14 24 14q27 0 27 -28q0 -11 -8 -22zM314 265
q-25 0 -37 -53q-6 -25 3 -37q42 62 42 84q0 6 -8 6zM216 98q-21 30 -21 69q0 29 12 59q-20 -10 -44 -41q-50 -65 -50 -102q0 -24 26 -24q34 0 77 39zM474 496q0 -27 -19.5 -50t-46.5 -23q-20 0 -37 9q-21 11 -21 30q0 31 22.5 52.5t52.5 21.5q49 0 49 -40zM301 496
q0 -27 -19.5 -50t-46.5 -23q-20 0 -37 9q-21 11 -21 30q0 31 22.5 52.5t52.5 21.5q49 0 49 -40z" />
    <glyph glyph-name="otilde" unicode="&#xf5;" horiz-adv-x="402" 
d="M480 141q-74 -101 -151 -101q-24 0 -50 9q-78 -77 -146 -71q-29 2 -70 38.5t-47 69.5q-2 11 -2 24q0 70 52 142q40 55 99 90q54 32 86 27q28 -4 60 -28q34 16 61 4q33 -14 33 -60q0 -85 -80 -185q4 -1 9 -1q48 0 103 78q10 14 24 14q27 0 27 -28q0 -11 -8 -22zM314 265
q-25 0 -37 -53q-6 -25 3 -37q42 62 42 84q0 6 -8 6zM216 98q-21 30 -21 69q0 29 12 59q-20 -10 -44 -41q-50 -65 -50 -102q0 -24 26 -24q34 0 77 39zM494 508q-3 -33 -41 -56.5t-75 -20.5q-17 2 -51 19t-55 19q-15 2 -56 -20t-43 -21q-13 1 -12 12q3 33 50.5 64t82.5 28
q19 -2 50 -17.5t46 -17.5q16 -2 54 11.5t41 13.5q10 -3 9 -14z" />
    <glyph glyph-name="uacute" unicode="&#xfa;" horiz-adv-x="453" 
d="M525 143q-48 -76 -114 -119q-53 -35 -112 -35q-21 0 -38 6q-27 9 -50 38q-58 -44 -111 -44q-19 0 -35 6q-22 8 -42 32q-25 30 -24 67q1 46 76 157q71 105 99 119q7 3 15 3q24 0 49.5 -21.5t26.5 -40.5q1 -7 -7 -20q-41 -59 -102 -148q-36 -53 -36 -71q0 -12 10 -12
q12 0 55 41q20 19 90 133q40 64 43 69q32 50 48 64q8 7 18 7q23 0 49.5 -22.5t27.5 -40.5q1 -7 -7 -20q-41 -58 -102 -148q-39 -59 -33 -82q3 -10 14 -10q20 0 65 35q36 28 80 86q15 19 30 19q23 0 23 -27q0 -11 -6 -21zM495 539q0 -12 -34 -20q-23 -6 -78.5 -48t-60.5 -42
q-11 0 -11 15q0 33 29 59t59 53q44 37 62 37q8 0 21 -22t13 -32z" />
    <glyph glyph-name="ugrave" unicode="&#xf9;" horiz-adv-x="453" 
d="M525 143q-48 -76 -114 -119q-53 -35 -112 -35q-21 0 -38 6q-27 9 -50 38q-58 -44 -111 -44q-19 0 -35 6q-22 8 -42 32q-25 30 -24 67q1 46 76 157q71 105 99 119q7 3 15 3q24 0 49.5 -21.5t26.5 -40.5q1 -7 -7 -20q-41 -59 -102 -148q-36 -53 -36 -71q0 -12 10 -12
q12 0 55 41q20 19 90 133q40 64 43 69q32 50 48 64q8 7 18 7q23 0 49.5 -22.5t27.5 -40.5q1 -7 -7 -20q-41 -58 -102 -148q-39 -59 -33 -82q3 -10 14 -10q20 0 65 35q36 28 80 86q15 19 30 19q23 0 23 -27q0 -11 -6 -21zM360 416q0 -7 -6 -14.5t-12 -7.5q-23 0 -89 41
q-69 43 -69 64q0 13 9.5 42t18.5 29q8 0 14 -12q28 -61 103 -114q31 -21 31 -28z" />
    <glyph glyph-name="ucircumflex" unicode="&#xfb;" horiz-adv-x="452" 
d="M525 143q-48 -76 -114 -119q-53 -35 -112 -35q-21 0 -38 6q-27 9 -50 38q-58 -44 -111 -44q-19 0 -35 6q-22 8 -42 32q-25 30 -24 67q1 46 76 157q71 105 99 119q7 3 15 3q24 0 49.5 -21.5t26.5 -40.5q1 -7 -7 -20q-41 -59 -102 -148q-36 -53 -36 -71q0 -12 10 -12
q12 0 55 41q20 19 90 133q40 64 43 69q32 50 48 64q8 7 18 7q23 0 49.5 -22.5t27.5 -40.5q1 -7 -7 -20q-41 -58 -102 -148q-39 -59 -33 -82q3 -10 14 -10q20 0 65 35q36 28 80 86q15 19 30 19q23 0 23 -27q0 -11 -6 -21zM469 461q0 -9 -12 -23t-19 -14t-31.5 39t-40.5 39
q-11 0 -129 -83q-8 0 -8 13q0 21 18 47q8 12 71 52t79 40q15 0 43.5 -47t28.5 -63z" />
    <glyph glyph-name="udieresis" unicode="&#xfc;" horiz-adv-x="453" 
d="M525 143q-48 -76 -114 -119q-53 -35 -112 -35q-21 0 -38 6q-27 9 -50 38q-58 -44 -111 -44q-19 0 -35 6q-22 8 -42 32q-25 30 -24 67q1 46 76 157q71 105 99 119q7 3 15 3q24 0 49.5 -21.5t26.5 -40.5q1 -7 -7 -20q-41 -59 -102 -148q-36 -53 -36 -71q0 -12 10 -12
q12 0 55 41q20 19 90 133q40 64 43 69q32 50 48 64q8 7 18 7q23 0 49.5 -22.5t27.5 -40.5q1 -7 -7 -20q-41 -58 -102 -148q-39 -59 -33 -82q3 -10 14 -10q20 0 65 35q36 28 80 86q15 19 30 19q23 0 23 -27q0 -11 -6 -21zM495 508q0 -27 -19.5 -50t-46.5 -23q-21 0 -38 9
q-20 11 -20 30q0 31 22.5 52.5t52.5 21.5q49 0 49 -40zM347 508q0 -27 -19.5 -50t-46.5 -23q-21 0 -38 9q-20 11 -20 30q0 31 22.5 52.5t52.5 21.5q49 0 49 -40z" />
    <glyph glyph-name="dagger" unicode="&#x2020;" horiz-adv-x="702" 
d="M663 497q-12 -14 -146 -16q-108 -167 -206 -308q-109 -155 -120 -154q-17 1 -28 19t-8 32q3 12 269 412q-94 3 -100 15q-4 7 -4 15q0 33 27 43q12 4 130 5l91 136q25 37 66 37q21 0 24 -13q3 -11 -90 -160q17 1 50 -5q49 -17 49 -48q0 -6 -4 -10z" />
    <glyph glyph-name="cent" unicode="&#xa2;" horiz-adv-x="572" 
d="M563 779q0 -17 -17.5 -52t-38.5 -61q24 -24 26 -46q2 -24 -27 -88.5t-46 -71.5q-10 -5 -51.5 18.5t-36.5 35.5q21 35 50 84q17 30 12 33q-2 1 -5 1q-23 0 -77 -49q-62 -55 -113 -133q-65 -101 -65 -179q0 -44 28 -62q18 -13 50 -13q46 0 104 23t93 52q3 2 6 2
q6 0 17.5 -10.5t5.5 -17.5q-106 -118 -222 -131q-27 -3 -59 5q-19 -40 -44 -76t-37 -36q-18 -1 -34.5 17t-15.5 31q1 9 25 46q16 24 32 49q-54 32 -67 65q-4 11 -4 30q0 105 79 233q124 201 269 228q16 3 34 -1q12 15 35 48q24 45 67 45q27 0 27 -19z" />
    <glyph glyph-name="sterling" unicode="&#xa3;" horiz-adv-x="623" 
d="M529 609q0 -103 -27 -120q-4 -3 -14 -3q-25 0 -57 13.5t-28 25.5q27 67 27 116q0 17 -6 20q-20 8 -144 -222l-8 -15q65 -5 70.5 -14t5.5 -22q0 -39 -22 -49q-8 -4 -100 1q-73 -135 -83 -162q43 -7 157 9q43 7 77 7q46 0 74 -13q15 -6 26 -28t10 -38q0 -17 -10 -12
q-32 15 -77 15t-96 -15q-109 -32 -177 -32q-11 0 -16 1q-20 6 -43 54q-22 44 -21 62q1 32 55 154q-23 2 -43 19q-23 18 -23 40q0 6 3 9q9 12 103 16q140 285 195 306q15 5 35 5q42 0 90 -21.5t57.5 -40.5t9.5 -66z" />
    <glyph glyph-name="section" unicode="&#xa7;" horiz-adv-x="678" 
d="M643 656l-2 -5h-83q10 23 10 42q0 46 -55 46q-77 0 -109 -68q-7 -15 -7 -28q0 -28 41 -57l90 -65q49 -34 49 -80q0 -29 -18 -67q-20 -42 -62 -79.5t-91 -54.5q16 -21 16 -48q0 -26 -16 -59q-31 -67 -100.5 -111t-148.5 -44q-114 0 -114 88q0 34 20 76h85l-1 -2
q-11 -23 -11 -41q0 -45 65 -45q84 0 116 69q7 16 7 29q0 34 -66 82l-66 49q-48 36 -48 82q0 26 15 56q38 83 152 141q-13 19 -13 43t14 55q31 67 96.5 110t138.5 43q115 0 115 -84q0 -32 -19 -73zM472 396q0 29 -49 66l-79 59q-66 -30 -86 -73q-8 -17 -8 -32q0 -28 49 -67
l79 -63q34 16 61 44q33 33 33 66z" />
    <glyph glyph-name="bullet" unicode="&#x2022;" horiz-adv-x="530" 
d="M415 417q0 -56 -40 -96t-96 -40q-57 0 -96.5 40t-39.5 96q0 57 39.5 96.5t96.5 39.5q56 0 96 -39.5t40 -96.5z" />
    <glyph glyph-name="paragraph" unicode="&#xb6;" horiz-adv-x="649" 
d="M636 722l-19 -42h-59l-317 -680h-54l317 680h-87l-317 -680h-54l178 382q-122 5 -122 96q0 34 19 74q35 76 109.5 123t161.5 47h244z" />
    <glyph glyph-name="germandbls" unicode="&#xdf;" horiz-adv-x="395" 
d="M576 551q-22 -114 -253 -258q-13 -8 -13 -14q0 -5 19 -12q24 -8 34 -19q18 -18 17 -51q-5 -76 -86 -144q-84 -69 -181 -69q-13 0 -19 6t-6 16q1 16 33 28q46 15 68 33q29 24 49 62.5t20 69.5q0 13 -4 22q-7 17 -32 26q-21 7 -21 20q0 15 75 75q110 89 141 117
q76 72 78 115q-81 -19 -189 -135q-88 -95 -138 -187q-82 -149 -243 -447q-46 -86 -70 -86t-46 24t-22 43q0 25 45 91q49 72 126 212q84 150 123 211q96 149 165 226q136 152 252 153q22 0 52.5 -52.5t25.5 -75.5z" />
    <glyph glyph-name="registered" unicode="&#xae;" horiz-adv-x="830" 
d="M740 451q0 -136 -96 -232.5t-233 -96.5q-136 0 -232 96.5t-96 232.5t96 232.5t232 96.5q137 0 233 -96.5t96 -232.5zM680 450q0 111 -78 188.5t-188 77.5t-187.5 -77.5t-77.5 -188.5q0 -110 77.5 -187.5t187.5 -77.5t188 77.5t78 187.5zM601 535q-6 -57 -190 -88l-12 -2
q40 -46 74 -87q51 -62 68 -101q3 -7 -2.5 -13.5t-12.5 -6.5q-4 0 -6 3q-11 17 -89 89q-34 32 -91 74q-53 -97 -59 -122q1 -10 -1 -23q-8 -5 -19 9q-18 21 -18 32q0 18 39 107q37 83 79 165q-15 -4 -49 -10q-24 -4 -65 45q-3 4 -3 7q0 7 14 12q52 20 151 31q10 14 14 16
q10 5 33 -15q64 -2 99 -19q17 -8 32 -40q17 -35 14 -63zM551 567q-1 16 -105 13q-27 -40 -64 -103q172 50 169 90z" />
    <glyph glyph-name="copyright" unicode="&#xa9;" horiz-adv-x="830" 
d="M740 451q0 -136 -96 -232.5t-233 -96.5q-136 0 -232 96.5t-96 232.5t96 232.5t232 96.5q137 0 233 -96.5t96 -232.5zM680 450q0 111 -78 188.5t-188 77.5t-187.5 -77.5t-77.5 -188.5q0 -110 77.5 -187.5t187.5 -77.5t188 77.5t78 187.5zM575 602q1 -17 -19.5 -63
t-32.5 -51q-8 -4 -37.5 13t-25.5 25q14 25 35 60q13 22 9 25q-11 6 -53 -30q-47 -41 -86 -100q-47 -72 -47 -128q0 -32 20 -45q13 -9 36 -9q33 0 74.5 16.5t66.5 36.5q5 5 15 -4t5 -14q-75 -85 -159 -94q-40 -4 -88 22q-44 24 -55 51q-3 7 -3 21q0 75 57 167q89 144 193 163
q29 5 61 -16.5t34 -45.5z" />
    <glyph glyph-name="trademark" unicode="&#x2122;" horiz-adv-x="682" 
d="M657 710q0 -5 -31 -64q-37 -68 -48 -97q-7 -19 -7 -33q0 -17 9 -19q20 -5 48 31q2 1 6 0t5 -3q6 -9 -4 -20q-34 -42 -68 -42q-8 0 -16 3q-11 5 -23.5 25.5t-9.5 38.5q10 53 33 96q-78 -93 -89 -102q-4 -3 -8 -3q-14 0 -17 18q1 43 0 111q-30 -47 -61 -107
q-32 -65 -39 -98q0 -8 -1 -17q-5 -4 -14 6q-14 17 -13 23q6 48 63.5 172.5t73.5 129.5t43 -22q3 -3 -4 -61q-7 -68 -7 -82q0 -10 2 -10q3 -1 54 61q55 68 59.5 72t14.5 10q13 2 31 -3.5t18 -13.5zM386 699q-1 -11 -10 -9q-26 6 -86 5q-30 -45 -72 -120q-43 -78 -48 -98
q1 -7 -1 -17q-5 -4 -14 7q-13 15 -13 23q0 34 87 202q-2 0 -5 -1q-53 -8 -67 7q-10 10 -12 50q0 7 3 10q4 3 6 0q6 -10 14 -13q15 -6 90 -1q9 13 13 15q9 5 27 -14q69 -3 79.5 -12t8.5 -34z" />
    <glyph glyph-name="acute" unicode="&#xb4;" horiz-adv-x="442" 
d="M334 881q0 -12 -34 -20q-23 -5 -78.5 -47.5t-60.5 -42.5q-11 0 -11 15q0 34 29 60l58 52q45 37 63 37q8 0 21 -21.5t13 -32.5z" />
    <glyph glyph-name="dieresis" unicode="&#xa8;" horiz-adv-x="500" 
d="M401 845q0 -27 -20 -50t-46 -23q-21 0 -38 9q-20 11 -20 30q0 31 22 52.5t53 21.5q49 0 49 -40zM228 845q0 -27 -20 -50t-46 -23q-21 0 -38 9q-20 11 -20 30q0 31 22 52.5t53 21.5q49 0 49 -40z" />
    <glyph glyph-name="AE" unicode="&#xc6;" horiz-adv-x="1242" 
d="M1361 742q9 -2 9 -33q0 -33 -8.5 -77.5t-13.5 -44.5q-8 0 -95.5 10.5t-168.5 10.5q-35 0 -70 -1l-21 -2q-53 -80 -121 -198q142 9 214 9q40 0 46.5 -4t6.5 -24q0 -34 -12 -46.5t-152 -40.5q-135 -26 -180 -29q-56 -101 -89 -170q53 -9 196 12q56 8 97 8q59 0 94 -16
q19 -8 32.5 -36t13.5 -47q-1 -21 -13 -16q-40 19 -97 19t-121 -19q-142 -42 -223 -42q-13 0 -22 2q-35 7 -79 49q-41 38 -44 58q-5 24 -6 94q-50 24 -83 24q-39 0 -126 -13q-81 -12 -126 -10q-95 -137 -110 -166q-19 -35 -35 -35q-6 0 -10 6q-23 33 -23 56q0 6 2 11
q4 23 81 164q-19 13 -30 28t-18.5 53t-5.5 58q3 27 15 27q4 0 9 -4q25 -20 93 -48q53 91 96 154q86 128 213 259q117 119 148 124q22 4 44 -22l22 -34q16 -21 47 -43q90 10 181 13q29 42 43 42q28 0 69 -41q222 -1 331 -29zM810 587q-35 -5 -93 -12q-25 -96 -49 -234
q-4 -23 -7 -48q68 145 149 294zM584 599q-34 -21 -103 -85q-74 -69 -129 -135q-22 -27 -55 -72q132 18 159 18q40 -1 81 -19q17 116 47 293z" />
    <glyph glyph-name="Oslash" unicode="&#xd8;" horiz-adv-x="681" 
d="M798 770l-60 -62q18 -26 22 -46q1 -5 1 -14q0 -57 -31 -164q-38 -125 -93 -215q-153 -250 -325 -296q-16 -4 -37 -4q-74 0 -167 46q-42 -50 -78 -95q-1 -2 -4 -2q-7 0 -18 18.5t-11 34.5q0 10 5 15q22 21 59 59q-8 6 -11 11q-25 40 -25 122q0 193 114 371q82 129 201 213
q99 71 137 63q21 -5 46 -23t34 -35q40 19 67 21q28 2 73 -36l48 55q10 11 27 11q14 0 25 -8t11 -19t-10 -21zM634 680v3q-22 -7 -42 -17q-47 -24 -78.5 -60t-48.5 -118zM620 585q-245 -259 -427 -470q9 -29 33 -29q47 0 131 72.5t148 166.5q78 116 115 260zM441 669
q-109 -96 -176 -201q-40 -64 -62 -149q-19 -76 -19 -142q98 107 237 263q-8 3 -10 12q-4 23 -4 59q0 94 34 158z" />
    <glyph glyph-name="ae" unicode="&#xe6;" horiz-adv-x="526" 
d="M600 148q-27 -45 -71 -83q-89 -80 -209 -80q-44 0 -87 12q-36 9 -44 33q-47 -49 -86 -44q-35 5 -63 43q-31 41 -30 90q2 75 87 170t154 93q30 -2 56 -56q25 30 34 32q7 3 24 -1q50 31 94 25q23 -4 55 -31q36 -30 34 -56q-3 -52 -45.5 -102t-79.5 -53q-24 -1 -79 30
q-15 -36 -15 -66q0 -20 6 -29q11 -20 47 -20q55 0 107 48q25 23 67 76q10 13 23 13q26 0 26 -28q0 -8 -5 -16zM454 300q-7 5 -30 -16q-26 -23 -50 -59q23 -12 30 -10q15 3 33.5 33t18.5 46q0 5 -2 6zM266 272q-1 20 -7 21q-28 4 -92 -101q-51 -84 -51 -116q0 -6 3 -6
q16 -4 49 37q28 35 41 61q30 62 57 104z" />
    <glyph glyph-name="oslash" unicode="&#xf8;" horiz-adv-x="404" 
d="M476 141q-74 -101 -151 -101q-24 0 -50 9q-78 -77 -146 -71q-28 2 -67 35q-66 -55 -70 -55q-11 0 -11 15q0 19 9 30q13 11 25 22l20 16q-25 32 -25 69q0 70 52 142q40 55 99 90q54 32 86 27q28 -4 60 -28q33 16 54 7q13 -5 19 -22q51 38 59 38q9 0 16.5 -13.5t7.5 -24.5
q0 -12 -34 -20q-9 -2 -43 -27q-3 -99 -65 -179q4 -1 9 -1q48 0 103 78q10 14 24 14q27 0 27 -28q0 -11 -8 -22zM329 286q-3 9 -15 9q-27 0 -44 -56q32 26 59 47zM320 228q-25 -20 -56 -46q1 -27 5 -32q34 35 51 78zM203 226q-21 -19 -41 -44q-26 -34 -41 -67l70 59
q1 25 12 52zM212 98q-9 13 -14 29l-77 -65q6 -2 14 -2q34 0 77 38z" />
    <glyph glyph-name="questiondown" unicode="&#xbf;" horiz-adv-x="620" 
d="M583 691q-26 -28 -42 -28q-11 0 -30 8q-27 12 -27 36q0 19 17 45q23 33 44 33q14 0 32 -13q26 -18 26 -40q0 -20 -20 -41zM536 559q5 -31 -48 -100q-42 -55 -84 -92l-181 -158q-50 -45 -66 -104q-2 -7 3 -12t12 -3q60 16 107 43q98 57 204 175q11 13 32 -22
q19 -31 21 -47q2 -21 -80 -100q-73 -72 -120 -105q-72 -50 -130 -50q-11 0 -22 2q-32 7 -66.5 48t-42.5 77q-2 10 -2 22q0 67 63 128q59 57 238 205q117 97 104 130q-2 4 -2 7q0 8 8 9t12 -4q13 -11 25.5 -23t14.5 -26z" />
    <glyph glyph-name="exclamdown" unicode="&#xa1;" horiz-adv-x="534" 
d="M570 664q-26 -29 -43 -29q-10 0 -30 9q-27 12 -27 36q0 19 18 45q22 33 43 33q14 0 32 -13q26 -18 26 -40q0 -20 -19 -41zM365 285q-80 -130 -98 -157q-62 -98 -88 -130q-13 -14 -36 -14q-15 0 -29 6q-41 18 -41 39q0 8 5 17l349 514q18 27 28 27q5 0 12 -10
q12 -20 12 -56q0 -40 -45 -122q-11 -20 -69 -114z" />
    <glyph glyph-name="guillemotleft" unicode="&#xab;" horiz-adv-x="409" 
d="M353 457q-53 -47 -108 -109q-3 -15 30 -47t31 -39q-1 -7 -17.5 -16t-24.5 -7q-17 4 -55 40q-41 38 -38 53q3 17 57 71q51 51 64 57q29 12 50 8q13 -3 11 -11zM213 457q-53 -47 -108 -109q-3 -15 30 -47t31 -39q-1 -7 -17.5 -16t-24.5 -7q-17 4 -55 40q-41 38 -38 53
q3 17 57 71q51 51 64 57q29 12 50 8q13 -3 11 -11z" />
    <glyph glyph-name="guillemotright" unicode="&#xbb;" horiz-adv-x="514" 
d="M489 369q-3 -16 -55 -69t-66 -59q-29 -12 -50 -8q-12 3 -11 11q53 48 108 109q4 15 -29.5 47.5t-31.5 38.5q1 7 17.5 16t25.5 7q16 -3 55.5 -40.5t36.5 -52.5zM349 369q-3 -16 -55 -69t-66 -59q-29 -12 -50 -8q-12 3 -11 11q53 48 108 109q4 15 -29.5 47.5t-31.5 38.5
q1 7 17.5 16t25.5 7q16 -3 55.5 -40.5t36.5 -52.5z" />
    <glyph glyph-name="ellipsis" unicode="&#x2026;" horiz-adv-x="793" 
d="M686 16q-22 -32 -43 -32q-14 0 -32 12q-26 18 -26 41q0 19 19 40q27 29 43 29q11 0 30 -9q27 -12 27 -36q0 -19 -18 -45zM476 16q-22 -32 -43 -32q-14 0 -32 12q-26 18 -26 41q0 19 19 40q27 29 43 29q11 0 30 -9q27 -12 27 -36q0 -19 -18 -45zM251 16q-22 -32 -43 -32
q-14 0 -32 12q-26 18 -26 41q0 19 19 40q27 29 43 29q11 0 30 -9q27 -12 27 -36q0 -19 -18 -45z" />
    <glyph glyph-name="nonbreakingspace" unicode="&#xa0;" horiz-adv-x="376" 
 />
    <glyph glyph-name="Agrave" unicode="&#xc0;" horiz-adv-x="858" 
d="M864 718q-56 -111 -136 -377q-37 -123 -37 -253q0 -76 22 -88q16 -8 33 -8q46 0 95 59q7 8 14 -8q9 -17 -11 -44q-24 -33 -67 -57t-80 -24q-67 0 -99 70q-24 53 -24 128q0 25 3 52q-48 24 -81 24q-39 0 -128 -13q-81 -12 -126 -10q-110 -137 -128 -166q-23 -35 -38 -35
q-7 0 -10 6q-17 29 -17 50q0 9 3 17q6 23 98 164q-18 13 -27 28t-13 54q-3 37 1 57q5 27 18 27q4 0 8 -4q23 -20 89 -48q41 56 119 156q114 139 233 256q123 119 160 125q23 4 42 -22l18 -34q23 -34 60 -55q16 -9 6 -27zM661 584q-118 -75 -244 -205q-19 -19 -63 -72
q98 13 161 12q53 -1 79 -13q24 109 67 278zM845 904q0 -7 -5.5 -14.5t-12.5 -7.5q-23 0 -89 41q-69 43 -69 64q0 12 10 41.5t18 29.5q9 0 14 -12q29 -62 103 -114q31 -22 31 -28z" />
    <glyph glyph-name="Atilde" unicode="&#xc3;" horiz-adv-x="861" 
d="M864 718q-56 -111 -136 -377q-37 -123 -37 -253q0 -76 22 -88q16 -8 33 -8q46 0 95 59q7 8 14 -8q9 -17 -11 -44q-24 -33 -67 -57t-80 -24q-67 0 -99 70q-24 53 -24 128q0 25 3 52q-48 24 -81 24q-39 0 -128 -13q-81 -12 -126 -10q-110 -137 -128 -166q-23 -35 -38 -35
q-7 0 -10 6q-17 29 -17 50q0 9 3 17q6 23 98 164q-18 13 -27 28t-13 54q-3 37 1 57q5 27 18 27q4 0 8 -4q23 -20 89 -48q41 56 119 156q114 139 233 256q123 119 160 125q23 4 42 -22l18 -34q23 -34 60 -55q16 -9 6 -27zM661 584q-118 -75 -244 -205q-19 -19 -63 -72
q98 13 161 12q53 -1 79 -13q24 109 67 278zM973 963q-4 -34 -41.5 -57.5t-74.5 -19.5q-17 2 -51 19t-55 19q-15 1 -56 -20.5t-43 -21.5q-13 2 -12 13q3 32 50.5 63.5t82.5 27.5q19 -2 50 -17.5t46 -16.5q16 -2 54 11t41 13q10 -3 9 -13z" />
    <glyph glyph-name="Otilde" unicode="&#xd5;" horiz-adv-x="689" 
d="M760 662q1 -5 1 -14q0 -57 -31 -164q-38 -125 -93 -215q-153 -250 -325 -296q-16 -4 -37 -4q-61 0 -140 34q-72 31 -85 53q-25 40 -25 122q0 193 114 371q82 129 201 213q99 71 137 63q21 -5 46 -23t34 -35q40 19 67 21q31 2 80 -43t56 -83zM634 683q-22 -7 -42 -17
q-47 -24 -78 -59q-24 -27 -41 -84q-13 -46 -13 -69q0 -17 -27 -17q-19 0 -22 15q-4 23 -4 59q0 94 34 158q-109 -96 -176 -201q-81 -128 -81 -287q0 -79 26 -92q7 -3 16 -3q47 0 131 72.5t148.5 168t103.5 218.5q32 103 25 138zM801 944q-3 -33 -41 -56.5t-74 -19.5
q-17 2 -51.5 18.5t-55.5 19.5q-15 1 -55.5 -20.5t-43.5 -21.5q-13 1 -12 13q4 32 51 63.5t83 27.5q18 -2 49 -17.5t47 -17.5q16 -1 54 12t41 13q9 -3 8 -14z" />
    <glyph glyph-name="OE" unicode="&#x152;" horiz-adv-x="1088" 
d="M1207 742q9 -1 9 -32q0 -33 -9 -78t-14 -45q-24 0 -117 6q-132 9 -217 14l-84 4q-3 -30 -19 -89q-18 -69 -39 -115q143 9 214 9q40 0 46.5 -4t6.5 -24q0 -34 -12 -46.5t-152 -40.5q-135 -26 -179 -29q-56 -101 -90 -170q53 -9 197 12q55 8 97 8q59 0 94 -16q18 -8 32 -36
t13 -47q-1 -21 -12 -16q-41 19 -97 19q-57 0 -121 -19q-138 -41 -223 -41q-14 0 -21 2q-30 9 -63 77q-69 -54 -135 -72q-17 -4 -37 -4q-61 0 -141 34q-71 31 -85 53q-24 40 -24 122q0 193 113 371q82 129 201 213q99 71 137 63q22 -5 47 -23t33 -35q40 19 67 21q22 1 55 -23
q61 2 123 2q234 0 406 -25zM633 683q-21 -7 -41 -17q-48 -24 -78 -59q-24 -27 -41 -84q-14 -46 -14 -69q0 -17 -27 -17q-19 0 -22 15q-4 23 -4 59q0 94 34 158q-108 -96 -175 -201q-81 -128 -81 -287q0 -79 25 -92q7 -3 16 -3q47 0 131.5 72.5t148.5 168t103 218.5
q32 103 25 138z" />
    <glyph glyph-name="oe" unicode="&#x153;" horiz-adv-x="587" 
d="M662 148q-23 -37 -71 -83q-80 -77 -164 -77q-32 0 -77 22t-59 47q-89 -84 -155 -79q-29 2 -70 38.5t-47 69.5q-2 11 -2 24q0 70 52 142q41 55 99 90q54 32 86 27q28 -4 60 -28q33 16 54 7q12 -5 18 -21q71 63 135 55q23 -4 55 -31q36 -30 34 -56q-4 -52 -46 -102t-79 -53
q-24 -1 -79 30q-15 -36 -15 -66q0 -20 5 -29q12 -20 48 -20q55 0 107 48q25 23 67 76q10 13 23 13q26 0 26 -28q0 -8 -5 -16zM515 300q-6 5 -30.5 -17t-48.5 -58q23 -12 30 -10q15 3 33 33t18 46q0 5 -2 6zM310 262q-47 -7 -94 -36q-35 -21 -50 -41q-50 -65 -50 -102
q0 -22 20 -22q42 0 97 55q84 84 77 146z" />
    <glyph glyph-name="endash" unicode="&#x2013;" horiz-adv-x="763" 
d="M722 304q6 -9 6 -25q0 -19 -6.5 -38t-14.5 -22q-4 -2 -37 -2q-45 0 -238 5q-172 5 -201 3.5t-54 21t-25 52.5q0 7 3 10q11 14 238 14q317 0 329 -19z" />
    <glyph glyph-name="emdash" unicode="&#x2014;" horiz-adv-x="1098" 
d="M1012 296q6 -9 6 -25q0 -19 -6.5 -38t-14.5 -22q-4 -2 -71 -2q-81 0 -395 4q-272 4 -299 3q-30 -2 -55 20.5t-25 52.5q0 7 3 10q11 15 384 15q462 0 473 -18z" />
    <glyph glyph-name="quotedblleft" unicode="&#x201c;" horiz-adv-x="357" 
d="M337 661q3 -7 -4 -13q-28 -24 -40 -47q-9 -18 -6 -21q30 -13 30 -39q0 -20 -17 -39q-26 -28 -42 -28q-11 0 -30 9q-26 11 -26 34q0 17 17 46q51 90 79 110q3 3 9 3q22 0 30 -15zM201 661q3 -7 -4 -13q-28 -24 -40 -47q-9 -18 -6 -21q30 -13 30 -39q0 -20 -17 -39
q-26 -28 -42 -28q-11 0 -30 9q-26 11 -26 34q0 17 17 46q51 90 79 110q3 3 9 3q22 0 30 -15z" />
    <glyph glyph-name="quotedblright" unicode="&#x201d;" horiz-adv-x="455" 
d="M402 586q-51 -89 -79 -109q-4 -3 -10 -3q-22 0 -29 15q-4 6 3 13q28 24 41 47q9 17 5 21q-29 13 -29 39q0 20 16 38q27 29 43 29q11 0 30 -9q26 -12 26 -34q0 -17 -17 -47zM266 586q-51 -89 -79 -109q-4 -3 -10 -3q-22 0 -29 15q-4 6 3 13q28 24 41 47q9 17 5 21
q-29 13 -29 39q0 20 16 38q27 29 43 29q11 0 30 -9q26 -12 26 -34q0 -17 -17 -47z" />
    <glyph glyph-name="quoteleft" unicode="&#x2018;" horiz-adv-x="230" 
d="M209 661q4 -7 -3 -13q-28 -24 -40 -47q-10 -18 -6 -21q30 -13 30 -39q0 -20 -17 -39q-26 -28 -43 -28q-10 0 -30 9q-26 11 -26 34q0 17 17 46q52 90 79 110q4 3 10 3q22 0 29 -15z" />
    <glyph glyph-name="quoteright" unicode="&#x2019;" horiz-adv-x="316" 
d="M266 586q-51 -89 -79 -109q-4 -3 -10 -3q-22 0 -29 15q-4 6 3 13q28 24 41 47q9 17 5 21q-29 13 -29 39q0 20 16 38q27 29 43 29q11 0 30 -9q26 -12 26 -34q0 -17 -17 -47z" />
    <glyph glyph-name="ydieresis" unicode="&#xff;" horiz-adv-x="444" 
d="M515 140q-97 -124 -212 -170q-4 -44 -19.5 -92.5t-32.5 -70.5q-25 -30 -69 -47q-38 -15 -77 -15q-19 0 -33 4q-26 8 -55 43t-29 68q0 17 9 30q17 24 91 51q91 34 110 45q2 10 10 40q-49 -36 -109 -36q-19 0 -32 5q-22 8 -42 32q-25 30 -24 67q1 47 70 157q65 105 92 119
q7 3 15 3q24 0 49.5 -21.5t26.5 -40.5q1 -7 -7 -20q-41 -59 -102 -148q-25 -37 -25 -65q0 -17 17 -17q20 0 51.5 19t51.5 48q23 64 49 115q28 56 55 90q19 23 26 25q17 6 53.5 -10t33.5 -40q-24 -32 -94 -148q-35 -66 -43 -105q-2 -8 -1 -12q0 -4 4 -3q48 15 149 136
q19 22 38 11q13 -8 13 -25q0 -11 -8 -22zM191 -82q-34 -16 -69 -32q-50 -27 -45 -42q7 -25 37 -25q15 0 30 10q37 23 47 89zM477 496q0 -27 -19.5 -50t-46.5 -23q-20 0 -37 9q-21 11 -21 30q0 31 22.5 52.5t52.5 21.5q49 0 49 -40zM304 496q0 -27 -19.5 -50t-46.5 -23
q-20 0 -37 9q-21 11 -21 30q0 31 22.5 52.5t52.5 21.5q49 0 49 -40z" />
    <glyph glyph-name="Ydieresis" unicode="&#x178;" horiz-adv-x="584" 
d="M779 795q24 -22 24 -42q0 -18 -41 -83q-42 -74 -158 -275q-153 -257 -196 -312q-87 -113 -172 -115q-68 0 -140 78q-38 42 -66 90q-6 12 -3 41q4 30 16 30q5 0 11 -9q20 -36 50 -66q45 -46 88 -46q96 0 240 271q-53 -36 -104 -30q-27 3 -70 38q-53 42 -58 89q-2 19 -2 41
q0 92 34 190q34 94 69 113q56 28 121 28q38 0 38 -20t-31 -79q-43 -84 -51 -102q-66 -158 -66 -201q0 -23 22 -23q36 0 93 38q61 40 90 88q27 45 92 186q49 106 70 118q6 4 16 4q42 0 84 -40zM746 949q0 -28 -19.5 -50.5t-46.5 -22.5q-21 0 -38 9q-20 11 -20 30
q0 30 22.5 52t52.5 22q49 0 49 -40zM573 949q0 -28 -19.5 -50.5t-46.5 -22.5q-21 0 -38 9q-20 11 -20 30q0 30 22.5 52t52.5 22q49 0 49 -40z" />
    <glyph glyph-name="currency" unicode="&#xa4;" horiz-adv-x="705" 
d="M654 622q1 -27 -30 -96.5t-50 -78.5q-11 -5 -56 20.5t-40 38.5q23 38 54 92q16 26 16 32q0 5 -7 5q-25 0 -83 -52q-66 -59 -121 -141q122 -3 126 -9.5t4 -16.5q0 -29 -12 -35q-5 -2 -152 1q-12 -24 -20 -48q126 -3 129.5 -9t3.5 -16q0 -30 -12 -35q-4 -2 -138 1
q-3 -18 -3 -33q0 -48 30 -68q20 -14 55 -14q50 0 113 25t101 56q3 3 7 3q6 0 18.5 -11.5t5.5 -18.5q-46 -53 -106 -90q-71 -46 -136 -53q-62 -7 -134 32q-67 37 -83 78q-12 28 3 96q-61 1 -73 1q-18 -1 -33 12t-15 31q0 4 2 6q6 7 135 8q8 25 19 50q-47 1 -58 0
q-18 -1 -32.5 12.5t-14.5 30.5q0 5 1 7q6 7 133 8q55 99 134 175q102 99 190 99q43 0 84.5 -31.5t44.5 -63.5z" />
    <glyph glyph-name="guilsinglleft" unicode="&#x2039;" horiz-adv-x="322" 
d="M265 457q-52 -47 -108 -109q-3 -15 30 -47t32 -39q-2 -7 -18 -16t-25 -7q-16 4 -56 41t-37 52q4 17 57 71q51 51 64 57q30 12 50 8q13 -3 11 -11z" />
    <glyph glyph-name="guilsinglright" unicode="&#x203a;" horiz-adv-x="383" 
d="M349 369q-3 -16 -55 -69t-66 -59q-29 -12 -50 -8q-12 3 -11 11q53 48 108 109q4 15 -29.5 47.5t-31.5 38.5q1 7 17.5 16t25.5 7q16 -3 55.5 -40.5t36.5 -52.5z" />
    <glyph glyph-name="daggerdbl" unicode="&#x2021;" horiz-adv-x="652" 
d="M641 497q-12 -14 -146 -16q-33 -51 -69 -106q24 1 67 -4q49 -18 49 -48q0 -7 -4 -11q-13 -15 -165 -16q-188 -279 -204 -277q-17 1 -28 19t-8 32q2 9 147 228q-76 4 -82 14q-3 7 -3 15q0 33 27 43q10 4 109 5l71 107q-94 3 -100 15q-4 7 -4 15q0 33 27 43q12 4 130 5
l91 136q25 37 66 37q21 0 24 -13q3 -11 -90 -160q17 1 50 -5q49 -17 49 -48q0 -6 -4 -10z" />
    <glyph glyph-name="periodcentered" unicode="&#xb7;" horiz-adv-x="353" 
d="M251 258q-22 -33 -43 -33q-14 0 -32 12q-26 18 -26 41q0 19 19 41q27 28 43 28q11 0 30 -8q27 -13 27 -36q0 -19 -18 -45z" />
    <glyph glyph-name="periodcentered" unicode="&#x2219;" horiz-adv-x="353" 
d="M251 258q-22 -33 -43 -33q-14 0 -32 12q-26 18 -26 41q0 19 19 41q27 28 43 28q11 0 30 -8q27 -13 27 -36q0 -19 -18 -45z" />
    <glyph glyph-name="quotesinglbase" unicode="&#x201a;" horiz-adv-x="313" 
d="M251 16q-51 -89 -79 -110q-3 -2 -10 -2q-22 0 -29 15q-4 6 4 12q27 25 40 48q9 17 6 20q-30 14 -30 40q0 20 16 38q27 29 43 29q11 0 30 -9q26 -12 26 -34q0 -17 -17 -47z" />
    <glyph glyph-name="quotedblbase" unicode="&#x201e;" horiz-adv-x="440" 
d="M387 16q-51 -89 -79 -110q-3 -2 -10 -2q-22 0 -29 15q-4 6 4 12q27 25 40 48q9 17 6 20q-30 14 -30 40q0 20 16 38q27 29 43 29q11 0 30 -9q26 -12 26 -34q0 -17 -17 -47zM251 16q-51 -89 -79 -110q-3 -2 -10 -2q-22 0 -29 15q-4 6 4 12q27 25 40 48q9 17 6 20
q-30 14 -30 40q0 20 16 38q27 29 43 29q11 0 30 -9q26 -12 26 -34q0 -17 -17 -47z" />
    <glyph glyph-name="Acircumflex" unicode="&#xc2;" horiz-adv-x="864" 
d="M864 718q-56 -111 -136 -377q-37 -123 -37 -253q0 -76 22 -88q16 -8 33 -8q46 0 95 59q7 8 14 -8q9 -17 -11 -44q-24 -33 -67 -57t-80 -24q-67 0 -99 70q-24 53 -24 128q0 25 3 52q-48 24 -81 24q-39 0 -128 -13q-81 -12 -126 -10q-110 -137 -128 -166q-23 -35 -38 -35
q-7 0 -10 6q-17 29 -17 50q0 9 3 17q6 23 98 164q-18 13 -27 28t-13 54q-3 37 1 57q5 27 18 27q4 0 8 -4q23 -20 89 -48q41 56 119 156q114 139 233 256q123 119 160 125q23 4 42 -22l18 -34q23 -34 60 -55q16 -9 6 -27zM661 584q-118 -75 -244 -205q-19 -19 -63 -72
q98 13 161 12q53 -1 79 -13q24 109 67 278zM932 923q0 -9 -12 -23t-19 -14t-32 39t-40 39q-11 0 -129 -83q-8 0 -8 13q0 21 18 47q8 12 70.5 52t79.5 40q15 0 43.5 -46.5t28.5 -63.5z" />
    <glyph glyph-name="Ecircumflex" unicode="&#xca;" horiz-adv-x="701" 
d="M820 742q9 -2 9 -33q0 -33 -8.5 -77.5t-14.5 -44.5q-7 0 -94.5 10.5t-168.5 10.5q-35 0 -70 -1l-21 -2q-53 -80 -122 -198q143 9 215 9q40 0 46.5 -4t6.5 -24q0 -34 -12 -46.5t-152 -40.5q-135 -26 -180 -29q-56 -101 -89 -170q53 -9 196 12q55 8 97 8q59 0 94 -16
q19 -8 32.5 -36t13.5 -47q-1 -21 -13 -16q-40 19 -97 19t-121 -19q-137 -41 -223 -41q-14 0 -20 2q-26 8 -55 61q-27 50 -26 70q2 35 75 191q69 146 151 297q-106 -14 -123 -12t-35 66q-10 36 -20 73q-1 3 -1 7q0 19 22 23q103 20 265 26q29 42 43 42q28 0 69 -41
q222 -1 331 -29zM671 902q0 -9 -12 -23t-19 -14t-31.5 39t-40.5 39q-10 0 -129 -83q-8 0 -8 13q0 21 18 47q9 12 71.5 52t78.5 40t44 -47t28 -63z" />
    <glyph glyph-name="Aacute" unicode="&#xc1;" horiz-adv-x="859" 
d="M864 718q-56 -111 -136 -377q-37 -123 -37 -253q0 -76 22 -88q16 -8 33 -8q46 0 95 59q7 8 14 -8q9 -17 -11 -44q-24 -33 -67 -57t-80 -24q-67 0 -99 70q-24 53 -24 128q0 25 3 52q-48 24 -81 24q-39 0 -128 -13q-81 -12 -126 -10q-110 -137 -128 -166q-23 -35 -38 -35
q-7 0 -10 6q-17 29 -17 50q0 9 3 17q6 23 98 164q-18 13 -27 28t-13 54q-3 37 1 57q5 27 18 27q4 0 8 -4q23 -20 89 -48q41 56 119 156q114 139 233 256q123 119 160 125q23 4 42 -22l18 -34q23 -34 60 -55q16 -9 6 -27zM661 584q-118 -75 -244 -205q-19 -19 -63 -72
q98 13 161 12q53 -1 79 -13q24 109 67 278zM991 992q0 -12 -34 -20q-22 -5 -78 -47.5t-61 -42.5q-11 0 -11 15q0 34 29.5 60t58.5 52q44 37 62 37q9 0 21.5 -21.5t12.5 -32.5z" />
    <glyph glyph-name="Edieresis" unicode="&#xcb;" horiz-adv-x="701" 
d="M820 742q9 -2 9 -33q0 -33 -8.5 -77.5t-14.5 -44.5q-7 0 -94.5 10.5t-168.5 10.5q-35 0 -70 -1l-21 -2q-53 -80 -122 -198q143 9 215 9q40 0 46.5 -4t6.5 -24q0 -34 -12 -46.5t-152 -40.5q-135 -26 -180 -29q-56 -101 -89 -170q53 -9 196 12q55 8 97 8q59 0 94 -16
q19 -8 32.5 -36t13.5 -47q-1 -21 -13 -16q-40 19 -97 19t-121 -19q-137 -41 -223 -41q-14 0 -20 2q-26 8 -55 61q-27 50 -26 70q2 35 75 191q69 146 151 297q-106 -14 -123 -12t-35 66q-10 36 -20 73q-1 3 -1 7q0 19 22 23q103 20 265 26q29 42 43 42q28 0 69 -41
q222 -1 331 -29zM706 931q0 -28 -20 -50.5t-46 -22.5q-21 0 -38 9q-20 11 -20 30q0 30 22 52t53 22q49 0 49 -40zM533 931q0 -28 -20 -50.5t-46 -22.5q-21 0 -38 9q-20 11 -20 30q0 30 22 52t53 22q49 0 49 -40z" />
    <glyph glyph-name="Egrave" unicode="&#xc8;" horiz-adv-x="701" 
d="M820 742q9 -2 9 -33q0 -33 -8.5 -77.5t-14.5 -44.5q-7 0 -94.5 10.5t-168.5 10.5q-35 0 -70 -1l-21 -2q-53 -80 -122 -198q143 9 215 9q40 0 46.5 -4t6.5 -24q0 -34 -12 -46.5t-152 -40.5q-135 -26 -180 -29q-56 -101 -89 -170q53 -9 196 12q55 8 97 8q59 0 94 -16
q19 -8 32.5 -36t13.5 -47q-1 -21 -13 -16q-40 19 -97 19t-121 -19q-137 -41 -223 -41q-14 0 -20 2q-26 8 -55 61q-27 50 -26 70q2 35 75 191q69 146 151 297q-106 -14 -123 -12t-35 66q-10 36 -20 73q-1 3 -1 7q0 19 22 23q103 20 265 26q29 42 43 42q28 0 69 -41
q222 -1 331 -29zM561 856q0 -7 -5.5 -14.5t-12.5 -7.5q-23 0 -89 41q-69 43 -69 64q0 13 9 40q11 31 19 31t14 -12q28 -62 103 -114q31 -22 31 -28z" />
    <glyph glyph-name="Iacute" unicode="&#xcd;" horiz-adv-x="574" 
d="M622 679q-63 -92 -166 -278q-101 -182 -147 -285q95 -8 114.5 -13.5t32.5 -32.5q12 -22 12 -42q0 -8 -3 -11q-10 -10 -124 -20q-109 -9 -203 -9q-84 0 -92 9q-36 38 -36 88q0 16 5 26q12 21 186 12q85 229 237 529q-96 -24 -119 -24q-27 0 -49 11q-44 23 -44 100
q0 27 8 41q13 24 289 23q23 36 36 36q26 0 65 -37q121 -3 138 -8q25 -7 56 -35t31 -44q0 -18 -101 -28zM774 992q0 -12 -34 -20q-22 -5 -78 -43q-52 -37 -57 -37q-3 0 -7.5 -0.5t-5.5 0.5q-2 1 -2 5q0 34 29.5 60t58.5 52q44 37 62 37q9 0 21.5 -21.5t12.5 -32.5z" />
    <glyph glyph-name="Icircumflex" unicode="&#xce;" horiz-adv-x="574" 
d="M622 679q-63 -92 -166 -278q-101 -182 -147 -285q95 -8 114.5 -13.5t32.5 -32.5q12 -22 12 -42q0 -8 -3 -11q-10 -10 -124 -20q-109 -9 -203 -9q-84 0 -92 9q-36 38 -36 88q0 16 5 26q12 21 186 12q85 229 237 529q-96 -24 -119 -24q-27 0 -49 11q-44 23 -44 100
q0 27 8 41q13 24 289 23q23 36 36 36q26 0 65 -37q121 -3 138 -8q25 -7 56 -35t31 -44q0 -18 -101 -28zM722 912q0 -9 -12 -23t-19 -14t-31.5 39t-40.5 39q-10 0 -129 -83q-8 0 -8 13q0 21 18 47q9 12 71.5 52t78.5 40t44 -47t28 -63z" />
    <glyph glyph-name="Idieresis" unicode="&#xcf;" horiz-adv-x="574" 
d="M622 679q-63 -92 -166 -278q-101 -182 -147 -285q95 -8 114.5 -13.5t32.5 -32.5q12 -22 12 -42q0 -8 -3 -11q-10 -10 -124 -20q-109 -9 -203 -9q-84 0 -92 9q-36 38 -36 88q0 16 5 26q12 21 186 12q85 229 237 529q-96 -24 -119 -24q-27 0 -49 11q-44 23 -44 100
q0 27 8 41q13 24 289 23q23 36 36 36q26 0 65 -37q121 -3 138 -8q25 -7 56 -35t31 -44q0 -18 -101 -28zM743 954q0 -28 -19.5 -50.5t-46.5 -22.5q-21 0 -38 9q-20 10 -20 30q0 30 22.5 52t52.5 22q49 0 49 -40zM570 954q0 -28 -19.5 -50.5t-46.5 -22.5q-21 0 -38 9
q-20 10 -20 30q0 30 22.5 52t52.5 22q49 0 49 -40z" />
    <glyph glyph-name="Igrave" unicode="&#xcc;" horiz-adv-x="574" 
d="M622 679q-63 -92 -166 -278q-101 -182 -147 -285q95 -8 114.5 -13.5t32.5 -32.5q12 -22 12 -42q0 -8 -3 -11q-10 -10 -124 -20q-109 -9 -203 -9q-84 0 -92 9q-36 38 -36 88q0 16 5 26q12 21 186 12q85 229 237 529q-96 -24 -119 -24q-27 0 -49 11q-44 23 -44 100
q0 27 8 41q13 24 289 23q23 36 36 36q26 0 65 -37q121 -3 138 -8q25 -7 56 -35t31 -44q0 -18 -101 -28zM622 901q0 -7 -5.5 -14.5t-12.5 -7.5q-23 0 -89 41q-69 43 -69 64q0 13 9 40q10 31 19 31q8 0 14 -12q28 -62 103 -114q31 -22 31 -28z" />
    <glyph glyph-name="Oacute" unicode="&#xd3;" horiz-adv-x="689" 
d="M760 662q1 -5 1 -14q0 -57 -31 -164q-38 -125 -93 -215q-153 -250 -325 -296q-16 -4 -37 -4q-61 0 -140 34q-72 31 -85 53q-25 40 -25 122q0 193 114 371q82 129 201 213q99 71 137 63q21 -5 46 -23t34 -35q40 19 67 21q31 2 80 -43t56 -83zM634 683q-22 -7 -42 -17
q-47 -24 -78 -59q-24 -27 -41 -84q-13 -46 -13 -69q0 -17 -27 -17q-19 0 -22 15q-4 23 -4 59q0 94 34 158q-109 -96 -176 -201q-81 -128 -81 -287q0 -79 26 -92q7 -3 16 -3q47 0 131 72.5t148.5 168t103.5 218.5q32 103 25 138zM755 964q0 -12 -34 -20q-22 -6 -78 -48
t-61 -42q-11 0 -11 15q0 33 29.5 59t58.5 53q44 37 62 37q9 0 21.5 -22t12.5 -32z" />
    <glyph glyph-name="Ocircumflex" unicode="&#xd4;" horiz-adv-x="689" 
d="M760 662q1 -5 1 -14q0 -57 -31 -164q-38 -125 -93 -215q-153 -250 -325 -296q-16 -4 -37 -4q-61 0 -140 34q-72 31 -85 53q-25 40 -25 122q0 193 114 371q82 129 201 213q99 71 137 63q21 -5 46 -23t34 -35q40 19 67 21q31 2 80 -43t56 -83zM634 683q-22 -7 -42 -17
q-47 -24 -78 -59q-24 -27 -41 -84q-13 -46 -13 -69q0 -17 -27 -17q-19 0 -22 15q-4 23 -4 59q0 94 34 158q-109 -96 -176 -201q-81 -128 -81 -287q0 -79 26 -92q7 -3 16 -3q47 0 131 72.5t148.5 168t103.5 218.5q32 103 25 138zM739 913q0 -9 -11.5 -23t-19.5 -14
q-6 0 -31 39t-41 39q-10 0 -129 -83q-8 0 -8 13q0 21 18 47q9 12 71.5 52t78.5 40t44 -47t28 -63z" />
    <glyph glyph-name="Ograve" unicode="&#xd2;" horiz-adv-x="689" 
d="M760 662q1 -5 1 -14q0 -57 -31 -164q-38 -125 -93 -215q-153 -250 -325 -296q-16 -4 -37 -4q-61 0 -140 34q-72 31 -85 53q-25 40 -25 122q0 193 114 371q82 129 201 213q99 71 137 63q21 -5 46 -23t34 -35q40 19 67 21q31 2 80 -43t56 -83zM634 683q-22 -7 -42 -17
q-47 -24 -78 -59q-24 -27 -41 -84q-13 -46 -13 -69q0 -17 -27 -17q-19 0 -22 15q-4 23 -4 59q0 94 34 158q-109 -96 -176 -201q-81 -128 -81 -287q0 -79 26 -92q7 -3 16 -3q47 0 131 72.5t148.5 168t103.5 218.5q32 103 25 138zM607 887q0 -7 -5.5 -14.5t-12.5 -7.5
q-22 0 -90 42t-68 63q0 12 10 41.5t18 29.5q9 0 14 -12q29 -62 103 -114q31 -22 31 -28z" />
    <glyph glyph-name="Uacute" unicode="&#xda;" horiz-adv-x="601" 
d="M911 804q0 -21 -31 -38q-84 -45 -262 -392q-44 -92 -89 -184q-53 -103 -109 -150q-73 -61 -173 -58q-73 2 -127 34.5t-71 86.5q-12 36 -12 101q0 156 52 288q42 106 107 203t110 121q11 6 26 6q39 0 78.5 -32t39.5 -62q0 -16 -14 -25q-92 -65 -180 -278
q-56 -134 -56 -251q0 -107 54 -107q48 0 127 114q45 64 160 264q186 324 314 369q15 6 32 6q24 -1 24 -16zM748 964q0 -12 -34 -20q-23 -5 -78.5 -47.5t-60.5 -42.5q-11 0 -11 15q0 34 29.5 60t58.5 52q44 37 62 37q9 0 21.5 -21.5t12.5 -32.5z" />
    <glyph glyph-name="Ucircumflex" unicode="&#xdb;" horiz-adv-x="601" 
d="M911 804q0 -21 -31 -38q-84 -45 -262 -392q-44 -92 -89 -184q-53 -103 -109 -150q-73 -61 -173 -58q-73 2 -127 34.5t-71 86.5q-12 36 -12 101q0 156 52 288q42 106 107 203t110 121q11 6 26 6q39 0 78.5 -32t39.5 -62q0 -16 -14 -25q-92 -65 -180 -278
q-56 -134 -56 -251q0 -107 54 -107q48 0 127 114q45 64 160 264q186 324 314 369q15 6 32 6q24 -1 24 -16zM737 894q0 -9 -12 -23t-19 -14t-32 39t-40 39q-11 0 -129 -83q-8 0 -8 13q0 21 18 47q8 12 70.5 52t79.5 40q15 0 43.5 -47t28.5 -63z" />
    <glyph glyph-name="Ugrave" unicode="&#xd9;" horiz-adv-x="601" 
d="M911 804q0 -21 -31 -38q-84 -45 -262 -392q-44 -92 -89 -184q-53 -103 -109 -150q-73 -61 -173 -58q-73 2 -127 34.5t-71 86.5q-12 36 -12 101q0 156 52 288q42 106 107 203t110 121q11 6 26 6q39 0 78.5 -32t39.5 -62q0 -16 -14 -25q-92 -65 -180 -278
q-56 -134 -56 -251q0 -107 54 -107q48 0 127 114q45 64 160 264q186 324 314 369q15 6 32 6q24 -1 24 -16zM640 874q0 -7 -6 -14.5t-12 -7.5q-23 0 -89 41q-69 43 -69 64q0 12 9.5 41.5t18.5 29.5q8 0 14 -12q28 -62 103 -114q31 -22 31 -28z" />
    <glyph glyph-name="circumflex" unicode="&#x2c6;" horiz-adv-x="481" 
d="M361 826q0 -9 -12 -23t-19 -14t-31.5 39t-40.5 39q-10 0 -129 -83q-8 0 -8 13q0 21 18 47q9 12 71.5 52t78.5 40t44 -47t28 -63z" />
    <glyph glyph-name="tilde" unicode="&#x2dc;" horiz-adv-x="466" 
d="M409 866q-3 -34 -41 -57.5t-75 -19.5q-17 2 -51 19t-55 19q-15 1 -56 -20.5t-43 -21.5q-13 2 -12 13q3 32 50.5 63.5t82.5 27.5q19 -2 50 -17.5t46 -16.5q16 -2 54 11.5t41 12.5q10 -3 9 -13z" />
    <glyph glyph-name="macron" unicode="&#xaf;" horiz-adv-x="500" 
d="M404 824q2 -8 -4 -15t-14 -8q-11 0 -36 2t-37 2q-78 0 -169 -23q-7 -1 -13.5 6.5t-6.5 15.5q0 36 42 39q94 7 127 7q26 0 82 -8q26 -3 29 -18z" />
    <glyph glyph-name="macron" unicode="&#x2c9;" horiz-adv-x="500" 
d="M404 824q2 -8 -4 -15t-14 -8q-11 0 -36 2t-37 2q-78 0 -169 -23q-7 -1 -13.5 6.5t-6.5 15.5q0 36 42 39q94 7 127 7q26 0 82 -8q26 -3 29 -18z" />
    <glyph glyph-name="cedilla" unicode="&#xb8;" horiz-adv-x="336" 
d="M251 -98q0 -27 -24 -49.5t-50 -24.5q-40 -2 -73 15q-36 18 -33 42q3 25 51 25q25 0 25 -13q0 -6 -10.5 -10t-19.5 -4q12 -31 55 -24q30 6 30 36q0 18 -27 33q-21 11 -46 15q-8 1 -8 7q0 4 37 50h39l-29 -38q83 -10 83 -60z" />
    <glyph glyph-name="Scaron" unicode="&#x160;" horiz-adv-x="700" 
d="M714 691q0 -35 -51 -126t-73 -93q-21 -3 -62 27q-22 16 -44 33q-20 10 -2 40q22 35 44 71q33 52 33 64q0 5 -7 5q-34 0 -100 -59q-98 -88 -90 -146q2 -20 70 -64q65 -41 131 -82q75 -51 90 -89q11 -24 11 -49q0 -110 -179 -183q-148 -60 -271 -55q-72 3 -125.5 34.5
t-72.5 83.5q-4 10 -4 24q0 28 15 65q12 31 22 41q6 6 12 6q17 0 20 -26q5 -29 55 -63q55 -38 128 -51q33 -6 68 -6q53 0 93 14q58 21 58 64q0 9 -2 19q-8 28 -102 100q-112 86 -125 99q-53 58 -53 127q0 67 53 135q64 82 159 129q73 36 125 37q50 2 113 -40t63 -86z
M776 1007q0 -21 -18 -47q-9 -12 -70 -51q-64 -41 -80 -41t-44 47.5t-28 63.5q0 9 12 23t20 14q4 0 30.5 -39.5t35.5 -39.5q14 0 74.5 41.5t59.5 41.5q8 0 8 -13z" />
    <glyph glyph-name="scaron" unicode="&#x161;" horiz-adv-x="313" 
d="M394 568q0 -21 -18 -47q-9 -12 -70 -51q-64 -41 -80 -41t-44 47t-28 64q0 9 12 23t20 14q4 0 30.5 -39.5t35.5 -39.5q14 0 74.5 41.5t59.5 41.5q8 0 8 -13zM389 150q-11 -20 -56 -69q-57 -62 -108 -85q-31 -14 -71 -14q-60 0 -97 27q-34 24 -49 64q-6 -2 -12 -2
q-31 0 -31 25q0 10 9 19q21 21 59.5 72t54.5 78q24 41 37 61q29 44 44 52q7 4 13 4q16 0 38 -26q2 -2 22 -17q13 -11 13 -22q0 -6 -4 -14q-12 -26 -12 -66q0 -34 10.5 -57.5t26.5 -74.5q21 13 69 75q10 12 23 12q25 0 25 -26q0 -8 -4 -16zM154 140q-12 51 -11 95
q-54 -71 -89 -114q16 -60 58 -60q18 0 31 15t13 41q0 11 -2 23z" />
    <glyph glyph-name="Eth" unicode="&#xd0;" horiz-adv-x="799" 
d="M872 529q-11 -49 -53 -131q-50 -100 -115 -178q-70 -84 -145 -145q-106 -87 -180 -87q-58 0 -120 45q-53 38 -84 89q-37 -76 -45 -103q-3 -12 -3 -22q0 -7 3 -18q1 -7 -1.5 -8.5t-6.5 -1.5q-17 0 -34 20q-38 44 -38 66q0 46 106 280q-11 0 -19 -1q-30 -1 -55 21.5
t-25 51.5q0 8 3 11q10 12 141 14q35 75 70 145q-62 -8 -82 -5q-34 7 -82 45t-48 61q0 29 142 59q85 17 172 28q34 55 47 61q3 2 7 2q35 0 80 -52q169 7 222 -17q49 -23 94 -80q51 -65 51 -125q0 -13 -2 -25zM727 603q-12 19 -98 19q-72 0 -147 -11q-12 -2 -32 -5
q-47 -74 -106 -177q107 -5 113 -15t6 -27q0 -19 -6.5 -37.5t-14.5 -22.5q-8 -3 -153 3q-38 -69 -73 -137q69 -101 112 -102q46 -1 122 56t150 154q58 74 96 162q35 79 35 121q0 13 -4 19z" />
    <glyph glyph-name="eth" unicode="&#xf0;" horiz-adv-x="414" 
d="M625 502q0 -15 -7.5 -31t-15.5 -19q-8 -4 -107 1q-106 -169 -160 -287q-39 -86 -39 -97q0 -10 13 -10q37 0 138 123q12 15 26 15q24 0 24 -29q0 -11 -7 -21q-44 -60 -96 -104q-72 -61 -130 -61q-60 0 -76 49q-47 -50 -87 -45q-35 5 -65 46t-29 91q2 63 80 164
q82 108 149 108q41 0 66 -47q36 64 64 111q-18 0 -29 -1q-26 -1 -51.5 16.5t-25.5 42.5q0 6 3 10q11 14 154 14q62 96 87 112q6 3 15 3q24 0 51 -15.5t27 -32.5q0 -7 -5 -13q-20 -26 -43 -59q66 -5 71 -13.5t5 -20.5zM266 280q-1 21 -7 22q-13 2 -42 -30.5t-54 -72.5
q-51 -81 -51 -113q0 -15 10 -15q16 0 48 42q26 35 39 61q30 63 57 106z" />
    <glyph glyph-name="Yacute" unicode="&#xdd;" horiz-adv-x="584" 
d="M779 795q24 -22 24 -42q0 -18 -41 -83q-42 -74 -158 -275q-153 -257 -196 -312q-87 -113 -172 -115q-68 0 -140 78q-38 42 -66 90q-6 12 -3 41q4 30 16 30q5 0 11 -9q20 -36 50 -66q45 -46 88 -46q96 0 240 271q-53 -36 -104 -30q-27 3 -70 38q-53 42 -58 89q-2 19 -2 41
q0 92 34 190q34 94 69 113q56 28 121 28q38 0 38 -20t-31 -79q-43 -84 -51 -102q-66 -158 -66 -201q0 -23 22 -23q36 0 93 38q61 40 90 88q27 45 92 186q49 106 70 118q6 4 16 4q42 0 84 -40zM718 941q0 -12 -34 -20q-23 -5 -78.5 -47.5t-60.5 -42.5q-11 0 -11 15
q0 34 29 60l58 52q45 37 63 37q8 0 21 -21.5t13 -32.5z" />
    <glyph glyph-name="yacute" unicode="&#xfd;" horiz-adv-x="444" 
d="M515 140q-97 -124 -212 -170q-4 -44 -19.5 -92.5t-32.5 -70.5q-25 -30 -69 -47q-38 -15 -77 -15q-19 0 -33 4q-26 8 -55 43t-29 68q0 17 9 30q17 24 91 51q91 34 110 45q2 10 10 40q-49 -36 -109 -36q-19 0 -32 5q-22 8 -42 32q-25 30 -24 67q1 47 70 157q65 105 92 119
q7 3 15 3q24 0 49.5 -21.5t26.5 -40.5q1 -7 -7 -20q-41 -59 -102 -148q-25 -37 -25 -65q0 -17 17 -17q20 0 51.5 19t51.5 48q23 64 49 115q28 56 55 90q19 23 26 25q17 6 53.5 -10t33.5 -40q-24 -32 -94 -148q-35 -66 -43 -105q-2 -8 -1 -12q0 -4 4 -3q48 15 149 136
q19 22 38 11q13 -8 13 -25q0 -11 -8 -22zM191 -82q-34 -16 -69 -32q-50 -27 -45 -42q7 -25 37 -25q15 0 30 10q37 23 47 89zM472 532q0 -12 -34 -20q-23 -5 -78.5 -47.5t-60.5 -42.5q-11 0 -11 15q0 34 29.5 59.5t58.5 52.5q44 37 62 37q9 0 21.5 -22t12.5 -32z" />
    <glyph glyph-name="Lslash" unicode="&#x141;" horiz-adv-x="623" 
d="M593 23q-1 -21 -12 -16q-41 19 -97 19q-57 0 -121 -19q-138 -41 -223 -41q-14 0 -21 2q-25 8 -54 69q-27 55 -27 77q2 60 91 248q-94 -39 -99 -39q-11 0 -11 15q0 33 29 59q12 10 130 62q67 129 128 226q65 103 88 114q3 2 8 2q22 0 58 -30.5t43 -56.5q5 -19 -4 -29
q-29 -31 -91 -129q81 32 92 32q9 0 21.5 -22t12.5 -32q0 -12 -34 -20q-18 -5 -154 -62q-157 -264 -186 -350q54 -9 197 12q55 8 97 8q59 0 94 -16q18 -8 32 -36t13 -47z" />
    <glyph glyph-name="lslash" unicode="&#x142;" horiz-adv-x="298" 
d="M394 458q-27 -44 -61 -80q-80 -88 -156 -124q-50 -111 -50 -160q0 -28 34 -28q53 0 114 54q21 19 71 82q11 14 26 14q26 0 26 -25q0 -12 -9 -25q-132 -183 -260 -183q-22 0 -44 6.5t-50 46t-28 62.5q-4 75 83 238q-9 -4 -23 -10q-39 -21 -68 -16q-20 4 -16 20
q4 14 148 78q60 100 119 166q65 72 107 79q24 4 54 -24t30 -57q0 -15 -12 -44q39 12 44 8q14 -10 14 -21q0 -18 -40 -36q-27 -11 -53 -21zM369 538q-13 8 -55 -52q26 10 49 19q14 29 6 33zM310 425l-45 -18q-17 -29 -35 -62q43 33 80 80z" />
    <glyph glyph-name="Zcaron" unicode="&#x17d;" horiz-adv-x="665" 
d="M851 649q-24 -35 -124 -120q-67 -55 -133 -109q-10 -9 -187 -154q-145 -118 -158 -134q-2 -4 -2 -7q3 -8 44 -8q24 0 83 3t79 3q78 0 126 -48q20 -20 33 -65q6 -20 -2 -20q-2 0 -4 1q-52 23 -105 23q-27 0 -114 -15q-72 -12 -143 -24q-84 -13 -121 -9q-17 2 -51 44
t-34 68q0 4 1 8q13 41 291 303q259 244 305 276q-22 8 -97 6q-84 -3 -108 1q-98 15 -123 49.5t-18 86.5q2 13 8 13q5 0 11 -6q21 -21 116 -28q58 -4 169 12q121 16 143 16q15 0 23.5 -2.5t29.5 -49.5q23 -53 59 -79q18 -12 3 -35zM750 1005q0 -21 -18 -47q-8 -11 -69 -51
q-65 -41 -81 -41q-15 0 -44 49q-28 46 -28 62q0 10 12 23.5t20 13.5q5 0 31 -39.5t35 -39.5q14 0 75 41.5t59 41.5q8 0 8 -13z" />
    <glyph glyph-name="zcaron" unicode="&#x17e;" horiz-adv-x="402" 
d="M478 144q-78 -101 -197 -171q-4 -87 -48 -150q-54 -78 -151 -78q-19 0 -35 4q-33 8 -58.5 44t-25.5 69q0 13 5 22q13 25 95 59q60 23 119 46q3 15 -9 29q-32 -20 -56 -20q-21 0 -37.5 11t-17.5 27q-1 52 78 52q12 0 22 -2q17 20 57 76q40 64 40 91q0 10 -10 10
q-21 0 -77 -41q-74 -54 -141 -133q-11 -14 -24 -14t-22.5 16t-2.5 26q26 37 122 137q120 124 186 126q26 1 54.5 -33t29.5 -62q2 -43 -50 -115q-40 -56 -88 -100l-8 -7q25 -14 40 -34q45 26 93 71q25 24 75 80q10 11 22 11q16 0 23 -17q6 -17 -3 -30zM168 -81l-4 -2
q-32 -14 -64 -29q-48 -24 -48 -40q0 -12 10.5 -21.5t25.5 -8.5q56 5 80 101zM463 587q0 -21 -18 -47q-8 -12 -69 -51q-64 -41 -81 -41q-15 0 -43.5 47.5t-28.5 63.5q0 9 12 23t20 14q5 0 31 -39.5t35 -39.5q14 0 75 41.5t59 41.5q8 0 8 -13z" />
    <glyph glyph-name="fi" unicode="&#xf001;" horiz-adv-x="631" 
d="M702 444q-26 -39 -51 -39q-16 0 -37 15q-31 21 -31 47q0 23 23 48q31 34 50 34q12 0 35 -10q32 -15 32 -42q0 -23 -21 -53zM705 146q-50 -83 -111.5 -121.5t-125.5 -38.5q-29 0 -54 9q-37 12 -59 68q-52 -50 -95 -65q-58 -108 -72 -130q-59 -90 -104 -90q-36 0 -79 26
q-46 27 -58 62q-4 11 -4 29q0 62 34 165q41 122 115 249q80 138 172 240t144 108q19 2 49.5 -23t30.5 -46q0 -10 -9 -17q-71 -57 -196 -205q30 5 44 -40q9 -31 9 -66q0 -82 -32 -168q44 38 63 66q43 67 85 133q52 79 66 86q7 4 15 4q23 0 48 -22.5t26 -40.5q1 -7 -7 -21
q-29 -41 -93 -139q-44 -71 -38 -95q4 -13 26 -13q38 0 86 38q33 26 78 88q14 19 29 19q23 0 23 -27q0 -11 -6 -22zM247 241q-7 3 -17.5 -13t-16.5 -39q-13 -49 0 -89q38 93 38 130q0 10 -4 11zM178 24q-36 54 -30 132q-35 -80 -64 -169q-30 -92 -30 -122q0 -9 3 -11
q30 -15 121 170z" />
    <glyph glyph-name="fl" unicode="&#xf002;" horiz-adv-x="651" 
d="M794 572q0 -26 -29 -81q-32 -63 -79 -113q-80 -88 -156 -124q-50 -111 -50 -160q0 -28 34 -28q53 0 114 54q21 19 71 82q11 14 26 14q26 0 26 -25q0 -12 -9 -25q-132 -183 -260 -183q-22 0 -44 7q-17 5 -38.5 31t-33.5 52q-57 -57 -106 -75q-58 -108 -72 -130
q-59 -90 -104 -90q-36 0 -79 26q-46 27 -58 62q-4 11 -4 29q0 62 34 165q41 122 115 249q80 138 172 240t144 108q19 2 49.5 -23t30.5 -46q0 -10 -9 -17q-71 -57 -196 -205q30 5 44 -40q9 -31 9 -66q0 -82 -32 -168q32 28 39 35q21 20 26 34q46 136 153 300q118 181 188 192
q24 4 54 -24t30 -57zM722 538q-25 15 -139 -193q30 23 53 48q36 40 62.5 81t26.5 58q0 5 -3 6zM247 241q-7 3 -17.5 -13t-16.5 -39q-13 -49 0 -89q38 93 38 130q0 10 -4 11zM178 24q-36 54 -30 132q-35 -80 -64 -169q-30 -92 -30 -122q0 -9 3 -11q30 -15 121 170z" />
    <glyph glyph-name="apple" unicode="&#xf000;" horiz-adv-x="1368" 
d="M1117 855q0 -26 -12 -74q-26 -99 -75 -190q-69 -129 -136 -129q-42 0 -54 45q-6 27 5 68q-22 -50 -54 -90q-43 -56 -82 -56q-22 0 -35 21q-10 18 -10 42q0 57 47 160q40 90 78 139q19 24 35 28q16 3 20 -12q3 -14 -10 -36q-59 -89 -79 -125q-50 -92 -50 -141q0 -10 2 -18
q7 -27 28 -22q58 15 168 298q11 30 29 35q23 5 28 -14q2 -11 -43 -105q-47 -99 -47 -140q0 -43 28 -43q42 0 95 108q38 77 57 148q12 45 16 92q3 36 24 41q27 7 27 -30zM671 616q3 -14 -18 -22q-1 -1 -32 -9l-4 -1q-25 -144 -53 -188q-8 -13 -21 -16q-17 -5 -21 10
q-2 7 21 85l28 94q-62 -24 -120 -53q-26 -46 -78 -154q-8 -16 -21 -19q-16 -4 -20 8q-3 16 71 139q-18 -11 -43 -24q-5 -1 -6 3q-3 14 69 53q36 69 87 141q71 100 108 109q23 6 23 -35q0 -31 -17 -122q8 2 29 7q15 4 18 -6zM1354 347q4 -16 -26 -44.5t-47 -29.5
q-10 -61 -47 -61q-21 0 -40.5 16.5t-24.5 36.5q-2 10 7 12q24 6 65 6q11 68 -4 127l-2 4q-21 -32 -62 -96q-69 -115 -119 -115q-22 0 -27 21q-5 22 42 137q-92 -163 -152 -178q-29 -7 -34 13t25 86t29 71l-2 1q-15 -4 -58 -71q-34 -53 -51 -87q-6 -12 -18 -37q-4 -7 -9 -8
q-7 -2 -16.5 1.5t-11.5 10.5q-2 8 30 89.5t29 95.5l-4 2q-2 -1 -6 -4q-44 -40 -96 -126q-26 -43 -66 -45q-15 -28 -48.5 -48.5t-65.5 -20.5q-42 0 -52 40q-7 25 3 52q-6 -9 -25 -40q-5 -26 -36 -34q-18 -5 -38 5q11 -29 11 -64q0 -59 -24 -107q-28 -54 -76 -66q-8 -2 -14 -2
q-30 0 -30 51q0 79 73 257q64 157 112 230q12 18 26 22q20 5 25 -14q9 -35 -96 -194q-12 -16 -33 -50q-1 -2 -11 -35q-51 -174 -51 -216q0 -23 10 -21q23 6 42 74q14 51 17 93q2 30 -2 65q0 7 2 7q-1 0 21.5 -10.5t36.5 -6.5q12 3 20 14q2 11 58 91q41 59 73 64l6 1
q23 24 47 24t39 -23q12 -21 12 -47q0 -36 -22 -71q25 -2 40 23q98 161 143 172q18 4 21 -8q7 -26 -38 -130q88 141 131 152q17 4 20 -8q5 -20 -25.5 -90t-27.5 -79q1 -4 8 -2q26 6 69 65q3 4 56 85q9 12 26 39l21 47q-20 -11 -61 -28q-5 -1 -6 3q-5 21 79 56q10 27 21 53
q15 30 40 36q11 3 12 -2q1 -3 -29 -69q52 23 80 30q4 1 6 -6q6 -22 -35 -38q-32 -10 -63 -20l-50 -124q-37 -98 -33 -116q2 -6 8 -4q32 8 101.5 122t75.5 116q12 3 14 -6q15 -60 15 -131q0 -25 -3 -43h3q17 5 40 33q11 13 22 27q4 1 5 -3zM451 697q7 -29 -23 -42q5 8 4 13
t-16 1q-20 -5 -38 -12l5 -3q-50 -197 -77 -261q-68 -159 -176 -186q-11 -2 -24 -2q-63 0 -75 45q-5 20 12 25q8 2 26 -14.5t39 -16.5q9 0 19 3q86 21 147 166q44 103 62 225q-15 -5 -59 -32q-7 -2 -10 8q-6 26 62 61q52 26 91 36q26 6 31 -14zM1238 267q-26 0 -39 -3
q-5 -2 -3 -7q1 -7 11.5 -16.5t16.5 -7.5q8 2 14 34zM588 710q-19 -4 -118 -159q62 32 109 50q14 58 14 91q0 8 -1 13.5t-4 4.5zM621 308q-32 -8 -32 -55q0 -46 45 -56q18 41 18 74q0 45 -31 37zM620 175q-39 7 -48 42q-8 31 3 57q-44 -53 -44 -95q0 -47 32 -47q31 0 57 43z
" />
    <glyph glyph-name="dotlessi" unicode="&#x131;" horiz-adv-x="281" 
d="M355 146q-50 -83 -111.5 -121.5t-125.5 -38.5q-29 0 -54 9q-21 7 -43 38.5t-23 62.5q-2 42 73 158q71 109 97 123q7 4 15 4q23 0 48 -22.5t26 -40.5q1 -7 -7 -21q-29 -41 -93 -139q-44 -71 -38 -95q4 -13 26 -13q38 0 86 38q33 26 78 88q14 19 29 19q23 0 23 -27
q0 -11 -6 -22z" />
    <glyph glyph-name="breve" unicode="&#x2d8;" horiz-adv-x="445" 
d="M347 901q0 -17 -27 -52q-53 -70 -112 -69q-37 0 -77.5 31.5t-40.5 63.5q0 7 14 21t20 14q4 0 12 -15q29 -53 82 -53q32 0 62 18q19 13 40 35q17 19 18 19q9 0 9 -13z" />
    <glyph glyph-name="dotaccent" unicode="&#x2d9;" horiz-adv-x="350" 
d="M241 860q0 -27 -17 -51q-19 -27 -45 -27q-20 0 -38 9q-23 11 -23 29q0 30 22 52.5t52 22.5q49 0 49 -35z" />
    <glyph glyph-name="ring" unicode="&#x2da;" horiz-adv-x="325" 
d="M253 862q0 -43 -20 -73q-24 -35 -65 -35q-28 0 -50.5 21.5t-22.5 49.5q0 27 29 64.5t55 37.5q5 0 44 -22q21 -12 24 -15q6 -7 6 -28zM199 848q0 12 -9 33q-46 -31 -46 -65q0 -8 5 -28q50 30 50 60z" />
    <glyph glyph-name="hungarumlaut" unicode="&#x2dd;" horiz-adv-x="432" 
d="M333 884q0 -8 -26 -29q-41 -34 -61 -65q-15 -23 -22 -23q-15 0 -15 21q0 22 30.5 79t46.5 57q6 0 26.5 -17t20.5 -23zM213 884q0 -8 -26 -29q-41 -34 -61 -65q-15 -23 -22 -23q-15 0 -15 21q0 22 30.5 79t46.5 57q6 0 26.5 -17t20.5 -23z" />
    <glyph glyph-name="ogonek" unicode="&#x2db;" 
d="M292 -43q-4 -21 -4 -40q-63 -61 -117 -61q-41 0 -41 46q0 37 52 98h52q-45 -37 -45 -66q0 -23 21 -23q29 0 82 46z" />
    <glyph glyph-name="caron" unicode="&#x2c7;" horiz-adv-x="384" 
d="M320 913q0 -21 -18 -47q-8 -12 -71 -52t-79 -40q-15 0 -44 49q-28 46 -28 62q0 10 12 23.5t20 13.5q5 0 31 -39.5t35 -39.5q14 0 74.5 41.5t59.5 41.5q8 0 8 -13z" />
    </font>
</defs>
</svg>
